<?xml version="1.0" standalone="no"?>
<!DOCTYPE svg PUBLIC "-//W3C//DTD SVG 1.1//EN" "http://www.w3.org/Graphics/SVG/1.1/DTD/svg11.dtd" >
<svg xmlns="http://www.w3.org/2000/svg" xmlns:xlink="http://www.w3.org/1999/xlink" version="1.1">
<metadata>
Created by FontForge 20170731 at Tue Dec 10 10:28:39 2019
 By Aleksey,,,
Copyright (c) 2016-2019 by TypeType. Designers Ivan Gladkikh, Pavel Emelyanov. Technical designers Vika Usmanova, Olexa Volochay, Nadyr Rakhimov, Yuri Nakonechny. All rights reserved.
</metadata>
<defs>
<font id="TTNormsPro-Regular" horiz-adv-x="580" >
  <font-face 
    font-family="TT Norms Pro"
    font-weight="400"
    font-stretch="normal"
    units-per-em="1000"
    panose-1="2 0 5 3 3 0 0 2 0 3"
    ascent="800"
    descent="-200"
    x-height="480"
    cap-height="700"
    bbox="-520 -220 1438 1075"
    underline-thickness="50"
    underline-position="-150"
    unicode-range="U+000D-FB06"
  />
<missing-glyph horiz-adv-x="900" 
d="M100 284h45v-139h33v139h50v31h-128v126l19 -61h23l34 106l33 -106h23l54 170h-32l-34 -110l-35 110h-19l-35 -110l-31 103v157h700v-150h-110v-170h110v-91q-13 27 -50 27q-29 0 -44.5 -14.5t-15.5 -34.5q0 -22 13.5 -32t30 -15t30.5 -9.5t14 -16.5q0 -14 -9.5 -17.5
t-18.5 -3.5q-15 0 -21.5 7.5t-6.5 17.5h-33q0 -24 16.5 -39.5t44.5 -15.5q20 0 32.5 7.5t17.5 12.5v-163h-700v284zM328 143q38 0 60 25t22 61q0 37 -22.5 62t-59.5 25t-59.5 -25t-22.5 -62q0 -36 22 -61t60 -25zM328 174q-23 0 -37 16t-14 39q0 24 13.5 40t37.5 16
t37.5 -16t13.5 -40q0 -23 -14 -39t-37 -16zM549 315h-32v-106q0 -29 19.5 -47.5t48.5 -18.5t48 18.5t19 47.5v106h-32v-106q0 -15 -9 -25t-26 -10q-18 0 -27 11t-9 24v106zM344 380v62h24l35 -62h37l-40 67q36 16 36 50q0 21 -15.5 37t-41.5 16h-68v-170h33zM344 519h35
q10 0 17 -6t7 -17q0 -13 -8 -18t-16 -5h-35v46zM502 380v170h-33v-170h33zM800 262v-38q-11 10 -24 14.5t-24.5 8.5t-19.5 8t-8 12q0 9 7.5 14.5t18.5 5.5q10 0 18 -6.5t8 -18.5h24zM612 380v139h50v31h-132v-31h50v-139h32zM722 452h78v-41h-78v41zM722 519h78v-36h-78v36z
" />
    <glyph glyph-name="f_f" unicode="ff" horiz-adv-x="605" 
d="M105 415h-75v65h75v70q0 68 35 104t95 36q15 0 27.5 -2.5t22.5 -5.5q11 -4 20 -7v-65q-8 3 -19 7q-9 3 -21 5.5t-25 2.5q-30 0 -47.5 -18.5t-17.5 -56.5v-70h215v90q0 68 35 104t95 36q15 0 27.5 -2.5t22.5 -5.5q11 -4 20 -7v-65q-8 3 -19 7q-9 3 -21 5.5t-25 2.5
q-30 0 -47.5 -18.5t-17.5 -56.5v-90h115v-65h-115v-415h-70v415h-215v-415h-70v415z" />
    <glyph glyph-name="uniFB01" unicode="fi" horiz-adv-x="540" 
d="M105 415h-75v65h75v90q0 68 35 104t95 36q15 0 27.5 -2.5t22.5 -5.5q11 -4 20 -7v-65q-8 3 -19 7q-9 3 -21 5.5t-25 2.5q-30 0 -47.5 -18.5t-17.5 -56.5v-90h285v-480h-70v415h-215v-415h-70v415zM425 595q-19 0 -32 13t-13 32t13 32t32 13t32 -13t13 -32t-13 -32
t-32 -13z" />
    <glyph glyph-name="f_f_i" unicode="ffi" horiz-adv-x="825" 
d="M105 415h-75v65h75v70q0 68 35 104t95 36q15 0 27.5 -2.5t22.5 -5.5q11 -4 20 -7v-65q-8 3 -19 7q-9 3 -21 5.5t-25 2.5q-30 0 -47.5 -18.5t-17.5 -56.5v-70h215v90q0 68 35 104t95 36q15 0 27.5 -2.5t22.5 -5.5q11 -4 20 -7v-65q-8 3 -19 7q-9 3 -21 5.5t-25 2.5
q-30 0 -47.5 -18.5t-17.5 -56.5v-90h285v-480h-70v415h-215v-415h-70v415h-215v-415h-70v415zM710 595q-19 0 -32 13t-13 32t13 32t32 13t32 -13t13 -32t-13 -32t-32 -13z" />
    <glyph glyph-name=".notdef" horiz-adv-x="900" 
d="M100 284h45v-139h33v139h50v31h-128v126l19 -61h23l34 106l33 -106h23l54 170h-32l-34 -110l-35 110h-19l-35 -110l-31 103v157h700v-150h-110v-170h110v-91q-13 27 -50 27q-29 0 -44.5 -14.5t-15.5 -34.5q0 -22 13.5 -32t30 -15t30.5 -9.5t14 -16.5q0 -14 -9.5 -17.5
t-18.5 -3.5q-15 0 -21.5 7.5t-6.5 17.5h-33q0 -24 16.5 -39.5t44.5 -15.5q20 0 32.5 7.5t17.5 12.5v-163h-700v284zM328 143q38 0 60 25t22 61q0 37 -22.5 62t-59.5 25t-59.5 -25t-22.5 -62q0 -36 22 -61t60 -25zM328 174q-23 0 -37 16t-14 39q0 24 13.5 40t37.5 16
t37.5 -16t13.5 -40q0 -23 -14 -39t-37 -16zM549 315h-32v-106q0 -29 19.5 -47.5t48.5 -18.5t48 18.5t19 47.5v106h-32v-106q0 -15 -9 -25t-26 -10q-18 0 -27 11t-9 24v106zM344 380v62h24l35 -62h37l-40 67q36 16 36 50q0 21 -15.5 37t-41.5 16h-68v-170h33zM344 519h35
q10 0 17 -6t7 -17q0 -13 -8 -18t-16 -5h-35v46zM502 380v170h-33v-170h33zM800 262v-38q-11 10 -24 14.5t-24.5 8.5t-19.5 8t-8 12q0 9 7.5 14.5t18.5 5.5q10 0 18 -6.5t8 -18.5h24zM612 380v139h50v31h-132v-31h50v-139h32zM722 452h78v-41h-78v41zM722 519h78v-36h-78v36z
" />
    <glyph glyph-name=".null" horiz-adv-x="0" 
 />
    <glyph glyph-name=".null" horiz-adv-x="0" 
 />
    <glyph glyph-name="nonmarkingreturn" unicode="&#xd;" horiz-adv-x="0" 
 />
    <glyph glyph-name="space" unicode=" " horiz-adv-x="210" 
 />
    <glyph glyph-name="exclam" unicode="!" horiz-adv-x="310" 
d="M155 -10q-23 0 -36.5 13.5t-13.5 36.5t13.5 36.5t36.5 13.5t36.5 -13.5t13.5 -36.5t-13.5 -36.5t-36.5 -13.5zM110 700h90l-15 -530h-60z" />
    <glyph glyph-name="quotedbl" unicode="&#x22;" horiz-adv-x="350" 
d="M65 700h65v-210h-65v210zM220 700h65v-210h-65v210z" />
    <glyph glyph-name="numbersign" unicode="#" horiz-adv-x="725" 
d="M175 205h-155l10 65h157l31 160h-148l10 65h150l40 205h65l-40 -205h190l40 205h65l-40 -205h155l-10 -65h-157l-31 -160h148l-10 -65h-150l-40 -205h-65l40 205h-190l-40 -205h-65zM442 270l31 160h-190l-31 -160h190z" />
    <glyph glyph-name="dollar" unicode="$" horiz-adv-x="565" 
d="M250 -9q-53 5 -91 21t-64 35q-30 21 -50 48l45 51q19 -25 46 -43q23 -17 59 -30t85 -13q79 0 119.5 36.5t40.5 93.5q0 34 -16.5 55.5t-43 36.5t-60.5 25.5t-70 21.5t-70 24.5t-60.5 35t-43 53t-16.5 78.5q0 35 13 66.5t37.5 57t59.5 42.5t80 22v102h70v-102
q42 -5 73.5 -19.5t53.5 -29.5q26 -18 43 -39l-50 -50q-16 19 -39 35q-20 13 -48.5 24t-67.5 11q-36 0 -64 -10t-47 -26.5t-29 -38t-10 -45.5q0 -45 28 -69.5t70.5 -40.5t91.5 -29t91.5 -34.5t70.5 -58t28 -98.5q0 -79 -50.5 -133t-144.5 -65v-102h-70v101z" />
    <glyph glyph-name="percent" unicode="%" horiz-adv-x="760" 
d="M565 700h70l-440 -700h-70zM565 -10q-32 0 -60 12.5t-49 33.5t-33.5 49t-12.5 60t12.5 60t33.5 49t49 33.5t60 12.5t60 -12.5t49 -33.5t33.5 -49t12.5 -60t-12.5 -60t-33.5 -49t-49 -33.5t-60 -12.5zM565 50q38 0 64 26.5t26 68.5t-26 68.5t-64 26.5t-64 -26.5t-26 -68.5
t26 -68.5t64 -26.5zM195 400q-32 0 -60 12.5t-49 33.5t-33.5 49t-12.5 60t12.5 60t33.5 49t49 33.5t60 12.5t60 -12.5t49 -33.5t33.5 -49t12.5 -60t-12.5 -60t-33.5 -49t-49 -33.5t-60 -12.5zM195 460q38 0 64 26.5t26 68.5t-26 68.5t-64 26.5t-64 -26.5t-26 -68.5t26 -68.5
t64 -26.5z" />
    <glyph glyph-name="ampersand" unicode="&#x26;" horiz-adv-x="625" 
d="M270 -10q-45 0 -82 14t-63 37.5t-40.5 54t-14.5 64.5q0 47 20.5 84.5t46.5 64.5q30 32 68 56q-30 30 -53 63q-20 28 -36 61.5t-16 65.5t12.5 60t34 49t50.5 33.5t63 12.5t63 -12t50.5 -33t34 -48t12.5 -57q0 -40 -20.5 -75t-44.5 -62q-29 -32 -65 -58l160 -195
q12 20 22 46q8 22 15.5 53t7.5 71h65q0 -51 -10.5 -92.5t-22.5 -70.5q-14 -34 -32 -62q11 -17 24 -30q11 -11 25 -20.5t31 -9.5q5 0 10 0.5t10 1.5t10 3v-65q-5 -2 -11 -3q-5 -1 -11.5 -1.5t-12.5 -0.5q-26 0 -47.5 12.5t-36.5 27.5q-18 18 -31 40q-21 -22 -48 -40
q-23 -15 -57.5 -27.5t-79.5 -12.5zM270 55q34 0 60 9.5t44 20.5q21 13 36 30l-165 210q-31 -24 -55 -51q-21 -23 -38 -52.5t-17 -61.5q0 -48 35.5 -76.5t99.5 -28.5zM255 410q28 21 50 46q19 20 34.5 46.5t15.5 52.5q0 38 -26.5 64t-68.5 26t-68.5 -26t-26.5 -64
q0 -23 14 -48t31 -47q19 -26 45 -50z" />
    <glyph glyph-name="quotesingle" unicode="'" horiz-adv-x="195" 
d="M65 700h65v-210h-65v210z" />
    <glyph glyph-name="parenleft" unicode="(" horiz-adv-x="335" 
d="M245 -220q-47 55 -83 126q-31 61 -56.5 148t-25.5 196t25.5 196t56.5 148q36 71 83 126l55 -30q-44 -53 -78 -121q-29 -58 -53 -138.5t-24 -180.5t24 -180.5t53 -138.5q34 -68 78 -121l-55 -30v0z" />
    <glyph glyph-name="parenright" unicode=")" horiz-adv-x="335" 
d="M35 -190q43 53 77 121q29 58 53.5 138.5t24.5 180.5q0 49 -6.5 94.5t-17.5 85.5t-25 75t-29 64q-34 68 -77 121l55 30q46 -55 82 -126q15 -30 30 -67.5t27 -80.5t19 -92.5t7 -103.5t-7 -103.5t-19 -92.5t-27 -80.5t-30 -67.5q-36 -71 -82 -126z" />
    <glyph glyph-name="asterisk" unicode="*" horiz-adv-x="390" 
d="M75 420l85 105l-125 30l20 55l120 -40l-10 130h60l-10 -130l120 40l20 -55l-125 -30l85 -105l-45 -35l-75 110l-75 -110z" />
    <glyph glyph-name="plus" unicode="+" horiz-adv-x="515" 
d="M225 260h-185v65h185v190h65v-190h185v-65h-185v-190h-65v190z" />
    <glyph glyph-name="comma" unicode="," horiz-adv-x="220" 
d="M0 -105l90 195l70 -40l-115 -180z" />
    <glyph glyph-name="hyphen" unicode="-" horiz-adv-x="395" 
d="M45 330h305v-65h-305v65z" />
    <glyph glyph-name="period" unicode="." horiz-adv-x="210" 
d="M105 -10q-23 0 -36.5 13.5t-13.5 36.5t13.5 36.5t36.5 13.5t36.5 -13.5t13.5 -36.5t-13.5 -36.5t-36.5 -13.5z" />
    <glyph glyph-name="slash" unicode="/" horiz-adv-x="365" 
d="M300 710h65l-300 -920h-65z" />
    <glyph glyph-name="zero" unicode="0" horiz-adv-x="680" 
d="M341 -10q-55 0 -105.5 24.5t-89.5 71t-62.5 113.5t-23.5 151t23.5 151t62.5 113.5t89.5 71t104.5 24.5t104.5 -24.5t89.5 -71t62.5 -113.5t23.5 -151t-23.5 -151t-62 -113.5t-89 -71t-104.5 -24.5zM341 60q39 0 75.5 18.5t65 55t46 91t17.5 125.5t-17.5 125.5t-46 91
t-65.5 55t-76 18.5t-76 -18.5t-65.5 -55t-46 -91t-17.5 -125.5t17.5 -125.5t46 -91t65.5 -55t77 -18.5z" />
    <glyph glyph-name="one" unicode="1" horiz-adv-x="350" 
d="M170 560h-130v45q45 2 74 17t46 32q19 20 30 46h55v-700h-75v560z" />
    <glyph glyph-name="two" unicode="2" horiz-adv-x="550" 
d="M40 0q0 74 28 126t69.5 91.5t90 70.5t90 62.5t69.5 68t28 86.5q0 60 -39 97.5t-111 37.5q-48 0 -76.5 -18.5t-45.5 -41.5q-19 -26 -28 -60l-65 30q13 45 40 80q12 15 28 29.5t37.5 25.5t48.5 18t61 7q51 0 92.5 -16t71 -43.5t45.5 -65t16 -80.5q0 -54 -23 -94t-58.5 -73
t-78.5 -61.5t-83.5 -59t-73.5 -66t-48 -81.5h365v-70h-450v0z" />
    <glyph glyph-name="three" unicode="3" horiz-adv-x="560" 
d="M265 -10q-60 0 -104.5 16t-73.5 36q-34 23 -57 53l50 50q19 -25 46 -43q23 -16 57 -29t82 -13q39 0 70 10.5t52 29t32 43t11 52.5q0 27 -11.5 51t-33 43t-52 30t-68.5 11h-70v70h70q64 0 99.5 34t35.5 91q0 49 -35.5 82t-99.5 33q-40 0 -69.5 -12.5t-49.5 -27.5
q-24 -18 -41 -40l-50 55q21 26 52 47q26 18 65.5 33t92.5 15q47 0 85.5 -15t66.5 -40t43 -59t15 -71q0 -45 -16.5 -75t-36.5 -48q-23 -21 -52 -32q36 -10 65 -33q24 -20 44.5 -54t20.5 -88q0 -39 -16.5 -76t-47 -65.5t-74 -46t-97.5 -17.5z" />
    <glyph glyph-name="four" unicode="4" horiz-adv-x="585" 
d="M385 150h-355v85l335 465h95v-480h90v-70h-90v-150h-75v150zM385 220v395l-285 -395h285z" />
    <glyph glyph-name="five" unicode="5" horiz-adv-x="605" 
d="M305 -10q-59 0 -101.5 16t-71.5 36q-33 23 -57 53l50 50q19 -25 45 -43q23 -16 56.5 -29t78.5 -13q37 0 67.5 11.5t52.5 32.5t33.5 50.5t11.5 65.5q0 72 -44 116t-116 44q-40 0 -69 -12t-48 -26q-23 -17 -38 -37h-55l25 395h375v-70h-310l-15 -220q16 11 36 20
q17 8 42 14t57 6q51 0 94 -17.5t74.5 -48.5t49 -73t17.5 -91q0 -51 -17 -93t-48.5 -72.5t-76 -47.5t-98.5 -17z" />
    <glyph glyph-name="six" unicode="6" horiz-adv-x="590" 
d="M295 -10q-53 0 -97 17.5t-75.5 48.5t-49.5 73t-18 91q0 32 7.5 59.5t17.5 47.5q11 24 25 43l210 330h75l-165 -260q9 2 20 5q10 2 24 3.5t31 1.5q51 0 94 -17.5t74.5 -48.5t49 -73t17.5 -91t-18 -91t-49.5 -73t-76 -48.5t-96.5 -17.5zM295 60q37 0 67.5 11.5t52.5 32.5
t33.5 50.5t11.5 65.5t-11.5 65.5t-33.5 50.5t-52.5 32.5t-67.5 11.5q-38 0 -68 -11.5t-52 -32.5t-33.5 -50.5t-11.5 -65.5t11.5 -65.5t33.5 -50.5t52 -32.5t68 -11.5z" />
    <glyph glyph-name="seven" unicode="7" horiz-adv-x="495" 
d="M390 630h-360v70h440v-70l-310 -630h-80z" />
    <glyph glyph-name="eight" unicode="8" horiz-adv-x="590" 
d="M295 -10q-51 0 -94 17.5t-74.5 47t-49 68.5t-17.5 82q0 49 18.5 82t41.5 54q26 24 60 39q-26 13 -45 33q-17 17 -31 44.5t-14 67.5q0 36 16 69t43.5 59t65 41.5t80.5 15.5t80.5 -15.5t65 -41.5t43.5 -59t16 -69q0 -40 -14 -67.5t-31 -44.5q-20 -20 -45 -33q34 -15 60 -39
q23 -21 41.5 -54t18.5 -82q0 -43 -17.5 -82t-49 -68.5t-74.5 -47t-94 -17.5zM295 60q37 0 67 12t50.5 32.5t31.5 46.5t11 54t-12.5 54t-34 46.5t-50.5 32.5t-63 12t-63 -12t-50.5 -32.5t-34 -46.5t-12.5 -54t11 -54t31.5 -46.5t50 -32.5t67.5 -12zM295 410q60 0 95 33t35 82
t-35 82t-95 33t-95 -33t-35 -82t35 -82t95 -33z" />
    <glyph glyph-name="nine" unicode="9" horiz-adv-x="590" 
d="M365 260q-9 -3 -20 -5q-22 -5 -55 -5q-51 0 -94 17.5t-74.5 48.5t-49 73t-17.5 91t18 91t49.5 73t75.5 48.5t97 17.5q52 0 96.5 -17.5t76 -48.5t49.5 -73t18 -91q0 -32 -8 -59.5t-17 -47.5q-11 -24 -25 -43l-210 -330h-75zM295 320q37 0 67.5 11.5t52.5 32.5t33.5 50.5
t11.5 65.5t-11.5 65.5t-33.5 50.5t-52.5 32.5t-67.5 11.5q-38 0 -68 -11.5t-52 -32.5t-33.5 -50.5t-11.5 -65.5t11.5 -65.5t33.5 -50.5t52 -32.5t68 -11.5z" />
    <glyph glyph-name="colon" unicode=":" horiz-adv-x="210" 
d="M105 -10q-23 0 -36.5 13.5t-13.5 36.5t13.5 36.5t36.5 13.5t36.5 -13.5t13.5 -36.5t-13.5 -36.5t-36.5 -13.5zM105 390q-23 0 -36.5 13.5t-13.5 36.5t13.5 36.5t36.5 13.5t36.5 -13.5t13.5 -36.5t-13.5 -36.5t-36.5 -13.5z" />
    <glyph glyph-name="semicolon" unicode=";" horiz-adv-x="220" 
d="M0 -105l90 195l70 -40l-115 -180zM115 390q-23 0 -36.5 13.5t-13.5 36.5t13.5 36.5t36.5 13.5t36.5 -13.5t13.5 -36.5t-13.5 -36.5t-36.5 -13.5z" />
    <glyph glyph-name="less" unicode="&#x3c;" horiz-adv-x="495" 
d="M45 225v40l405 215v-70l-315 -165l315 -165v-70z" />
    <glyph glyph-name="equal" unicode="=" horiz-adv-x="495" 
d="M45 240h405v-65h-405v65zM45 415h405v-65h-405v65z" />
    <glyph glyph-name="greater" unicode="&#x3e;" horiz-adv-x="495" 
d="M45 80l315 165l-315 165v70l405 -215v-40l-405 -215v70z" />
    <glyph glyph-name="question" unicode="?" horiz-adv-x="525" 
d="M250 -10q-23 0 -36.5 13.5t-13.5 36.5t13.5 36.5t36.5 13.5t36.5 -13.5t13.5 -36.5t-13.5 -36.5t-36.5 -13.5zM215 170q-2 7 -3 14q-1 6 -1.5 14t-0.5 17q0 40 14.5 69t36 51.5t47 41.5t47 39.5t36 45t14.5 58.5q0 24 -10 46t-29 38.5t-45.5 26t-60.5 9.5
q-49 0 -79 -17.5t-47 -37.5q-20 -25 -29 -55l-65 20q13 45 42 80q12 15 28.5 29.5t38.5 25.5t49.5 18t61.5 7q49 0 89.5 -15.5t69.5 -42t45 -61t16 -71.5q0 -48 -14.5 -79t-36 -54t-47 -41.5t-47 -39t-36 -48t-14.5 -68.5v-20h-70z" />
    <glyph glyph-name="at" unicode="@" horiz-adv-x="900" 
d="M450 -130q-77 0 -146 30.5t-121 82.5t-82.5 121t-30.5 146t30.5 146t82.5 121t121 82.5t146 30.5q80 0 149.5 -29t120.5 -78t80.5 -114.5t29.5 -138.5q0 -54 -12.5 -93.5t-33.5 -65.5t-49.5 -38.5t-59.5 -12.5t-51.5 10.5t-33.5 24.5q-15 15 -25 35q-11 -20 -29 -35
q-16 -14 -41 -24.5t-60 -10.5q-34 0 -64.5 14t-54 39t-37.5 59t-14 73t14 73t37.5 59t54 39t64.5 14q32 0 55 -8.5t37 -19.5q17 -12 28 -27v50h60v-228q0 -41 16 -59t44 -18q18 0 34 8t28.5 25.5t20 46t7.5 70.5q0 63 -23.5 118t-65.5 95.5t-99.5 63.5t-126.5 23
q-66 0 -123 -24.5t-100 -68t-67.5 -102t-24.5 -125.5q0 -68 24.5 -126t67.5 -101.5t100 -68t123 -24.5q45 0 80 10t60 22q28 14 50 33l35 -45q-25 -22 -58 -40q-29 -15 -71 -27.5t-96 -12.5zM440 120q49 0 82 34t33 91t-33 91t-82 34q-23 0 -43 -9t-35 -25.5t-23.5 -39.5
t-8.5 -51t8.5 -51t23.5 -39.5t35 -25.5t43 -9z" />
    <glyph glyph-name="A" unicode="A" horiz-adv-x="690" 
d="M310 700h70l290 -700h-80l-80 195h-330l-80 -195h-80zM480 265l-135 330l-135 -330h270z" />
    <glyph glyph-name="B" unicode="B" horiz-adv-x="665" 
d="M105 700h270q43 0 79 -14t61.5 -38.5t40 -57.5t14.5 -70q0 -42 -12.5 -69.5t-27.5 -44.5q-18 -20 -40 -31q31 -15 57 -39q22 -21 40 -54t18 -82q0 -43 -15.5 -79.5t-43.5 -63.5t-67.5 -42t-88.5 -15h-285v700zM390 70q64 0 102 36.5t38 93.5q0 28 -10 53.5t-28 44.5
t-44 30.5t-58 11.5h-210v-270h210zM375 406q57 0 88.5 30.5t31.5 83.5q0 49 -31.5 79.5t-88.5 30.5h-195v-224h195z" />
    <glyph glyph-name="C" unicode="C" horiz-adv-x="750" 
d="M420 -10q-75 0 -140.5 28t-114.5 77t-77 114.5t-28 140.5t28 140.5t77 114.5t114.5 77t140.5 28q72 0 125 -23t89 -50q41 -32 71 -72l-50 -45q-24 34 -58 60q-29 23 -73 41.5t-104 18.5t-112 -22t-90.5 -61t-60.5 -92t-22 -115t22 -115t60.5 -92t90.5 -61t112 -22
t105 18.5t75 41.5q35 26 60 60l50 -45q-31 -41 -74 -73q-37 -27 -90.5 -49.5t-125.5 -22.5z" />
    <glyph glyph-name="D" unicode="D" horiz-adv-x="750" 
d="M105 700h220q77 0 143.5 -28t116 -76t77.5 -111.5t28 -134.5t-28 -134.5t-77.5 -111.5t-116 -76t-143.5 -28h-220v700zM325 70q62 0 115 22t92 60t61 89t22 109t-22 109t-61 89t-92 60t-115 22h-145v-560h145z" />
    <glyph glyph-name="E" unicode="E" horiz-adv-x="640" 
d="M105 700h480v-70h-405v-230h325v-70h-325v-260h415v-70h-490v700z" />
    <glyph glyph-name="F" unicode="F" horiz-adv-x="615" 
d="M105 700h475v-70h-400v-240h320v-70h-320v-320h-75v700z" />
    <glyph glyph-name="G" unicode="G" horiz-adv-x="795" 
d="M420 -10q-75 0 -140.5 28t-114.5 77t-77 114.5t-28 140.5t28 140.5t77 114.5t114.5 77t140.5 28q72 0 125 -23t89 -50q41 -32 71 -72l-50 -45q-24 34 -58 60q-29 23 -73 41.5t-104 18.5t-112 -22t-90.5 -61t-60.5 -92t-22 -115t22 -115t60.5 -92t90.5 -61t112 -22
q57 0 98 14.5t68 32.5q32 21 54 48v135h-160v70h235v-225q-32 -41 -76 -73q-38 -27 -92.5 -49.5t-126.5 -22.5z" />
    <glyph glyph-name="H" unicode="H" horiz-adv-x="750" 
d="M105 700h75v-310h390v310h75v-700h-75v320h-390v-320h-75v700z" />
    <glyph glyph-name="I" unicode="I" horiz-adv-x="285" 
d="M105 700h75v-700h-75v700z" />
    <glyph glyph-name="J" unicode="J" horiz-adv-x="495" 
d="M180 -10q-42 0 -73 12.5t-53 27.5q-26 18 -44 40l50 50q12 -17 30 -30q15 -11 37.5 -20.5t52.5 -9.5q64 0 102 38.5t38 106.5v495h75v-495q0 -47 -16 -86.5t-44.5 -68t-68 -44.5t-86.5 -16z" />
    <glyph glyph-name="K" unicode="K" horiz-adv-x="670" 
d="M105 700h75v-395l360 395h95l-265 -290l290 -410h-90l-250 355l-140 -150v-205h-75v700z" />
    <glyph glyph-name="L" unicode="L" horiz-adv-x="560" 
d="M105 700h75v-630h360v-70h-435v700z" />
    <glyph glyph-name="M" unicode="M" horiz-adv-x="920" 
d="M105 700h65l290 -380l290 380h65v-700h-75v570l-280 -370l-280 370v-570h-75v700z" />
    <glyph glyph-name="N" unicode="N" horiz-adv-x="780" 
d="M105 700h65l430 -565v565h75v-700h-65l-430 565v-565h-75v700z" />
    <glyph glyph-name="O" unicode="O" horiz-adv-x="840" 
d="M420 -10q-75 0 -140.5 28t-114.5 77t-77 114.5t-28 140.5t28 140.5t77 114.5t114.5 77t140.5 28t140.5 -28t114.5 -77t77 -114.5t28 -140.5t-28 -140.5t-77 -114.5t-114.5 -77t-140.5 -28zM420 60q60 0 112 22t90.5 61t60.5 92t22 115t-22 115t-60.5 92t-90.5 61t-112 22
t-112 -22t-90.5 -61t-60.5 -92t-22 -115t22 -115t60.5 -92t90.5 -61t112 -22z" />
    <glyph glyph-name="P" unicode="P" horiz-adv-x="650" 
d="M105 700h265q49 0 90 -17t71 -46.5t47 -69.5t17 -87t-17 -87t-47 -69.5t-71 -46.5t-90 -17h-190v-260h-75v700zM370 330q68 0 109 41t41 109t-41 109t-109 41h-190v-300h190z" />
    <glyph glyph-name="Q" unicode="Q" horiz-adv-x="840" 
d="M765 -140q-72 0 -121 22t-80 48q-36 31 -59 70q-11 -3 -24 -5q-25 -5 -61 -5q-75 0 -140.5 28t-114.5 77t-77 114.5t-28 140.5t28 140.5t77 114.5t114.5 77t140.5 28t140.5 -28t114.5 -77t77 -114.5t28 -140.5q0 -45 -9 -83t-23.5 -69.5t-33 -56.5t-37.5 -44
q-45 -45 -102 -72q17 -28 44 -50q23 -19 59 -34.5t87 -15.5q11 0 19.5 0.5t14.5 1.5t11 3v-65q-5 -2 -11 -3t-14.5 -1.5t-19.5 -0.5zM420 60q60 0 112 22t90.5 61t60.5 92t22 115t-22 115t-60.5 92t-90.5 61t-112 22t-112 -22t-90.5 -61t-60.5 -92t-22 -115t22 -115
t60.5 -92t90.5 -61t112 -22z" />
    <glyph glyph-name="R" unicode="R" horiz-adv-x="675" 
d="M105 700h280q47 0 86.5 -16t68 -44t44.5 -66.5t16 -83.5q0 -60 -23 -98.5t-50 -61.5q-32 -26 -72 -40l165 -290h-85l-155 280h-200v-280h-75v700zM385 350q64 0 102 38t38 102t-38 102t-102 38h-205v-280h205z" />
    <glyph glyph-name="S" unicode="S" horiz-adv-x="565" 
d="M280 -10q-60 0 -104.5 16t-73.5 36q-34 23 -57 53l45 51q19 -25 46 -43q23 -17 59 -30t85 -13q79 0 119.5 36.5t40.5 93.5q0 34 -16.5 55.5t-43 36.5t-60.5 25.5t-70 21.5t-70 24.5t-60.5 35t-43 53t-16.5 78.5q0 38 15.5 72.5t45 60.5t71 41.5t93.5 15.5q51 0 89 -14
t64 -31q30 -20 52 -45l-50 -50q-16 19 -39 35q-20 13 -48.5 24t-67.5 11q-36 0 -64 -10t-47 -26.5t-29 -38t-10 -45.5q0 -45 28 -69.5t70.5 -40.5t91.5 -29t91.5 -34.5t70.5 -58t28 -98.5q0 -43 -15.5 -79.5t-45.5 -63.5t-74 -42t-100 -15z" />
    <glyph glyph-name="T" unicode="T" horiz-adv-x="555" 
d="M240 630h-220v70h515v-70h-220v-630h-75v630z" />
    <glyph glyph-name="U" unicode="U" horiz-adv-x="760" 
d="M380 -10q-60 0 -112 22t-90.5 60.5t-60.5 90.5t-22 112v425h75v-425q0 -47 16 -86.5t44 -68t66.5 -44.5t83.5 -16t83.5 16t66.5 44.5t44 68t16 86.5v425h75v-425q0 -60 -22 -112t-60.5 -90.5t-90.5 -60.5t-112 -22z" />
    <glyph glyph-name="V" unicode="V" horiz-adv-x="680" 
d="M30 700h80l230 -595l230 595h80l-275 -700h-70z" />
    <glyph glyph-name="W" unicode="W" horiz-adv-x="1040" 
d="M30 700h80l185 -585l190 585h70l190 -585l185 585h80l-230 -700h-75l-185 585l-185 -585h-75z" />
    <glyph glyph-name="X" unicode="X" horiz-adv-x="650" 
d="M280 365l-240 335h90l195 -275l195 275h90l-240 -335l260 -365h-90l-215 305l-215 -305h-90z" />
    <glyph glyph-name="Y" unicode="Y" horiz-adv-x="635" 
d="M280 245l-260 455h85l210 -375h5l210 375h85l-260 -455v-245h-75v245z" />
    <glyph glyph-name="Z" unicode="Z" horiz-adv-x="600" 
d="M45 70l410 560h-395v70h485v-70l-410 -560h420v-70h-510v70z" />
    <glyph glyph-name="bracketleft" unicode="[" horiz-adv-x="335" 
d="M90 710h205v-65h-135v-790h135v-65h-205v920z" />
    <glyph glyph-name="backslash" unicode="\" horiz-adv-x="365" 
d="M0 710h65l300 -920h-65z" />
    <glyph glyph-name="bracketright" unicode="]" horiz-adv-x="335" 
d="M40 -145h135v790h-135v65h205v-920h-205v65z" />
    <glyph glyph-name="asciicircum" unicode="^" horiz-adv-x="400" 
d="M175 700h50l130 -280h-65l-90 200l-90 -200h-65z" />
    <glyph glyph-name="underscore" unicode="_" horiz-adv-x="330" 
d="M-10 -105h350v-65h-350v65z" />
    <glyph glyph-name="grave" unicode="`" horiz-adv-x="210" 
d="M30 700h75l75 -135h-55z" />
    <glyph glyph-name="a" unicode="a" horiz-adv-x="520" 
d="M215 -10q-38 0 -69 12t-53.5 31.5t-35 45t-12.5 51.5q0 60 36 97t104 48l185 30q0 53 -33.5 86.5t-86.5 33.5q-32 0 -57 -11t-42 -24q-20 -16 -36 -35l-45 45q20 25 47 45q23 17 56 31t77 14q41 0 76 -14t60.5 -39t39.5 -59t14 -73v-305h-70v65q-15 -21 -38 -38
q-20 -14 -49 -25.5t-68 -11.5zM215 55q34 0 62.5 11.5t49 32.5t32 50.5t11.5 65.5v30l-165 -30q-90 -17 -90 -85q0 -30 25.5 -52.5t74.5 -22.5z" />
    <glyph glyph-name="b" unicode="b" horiz-adv-x="600" 
d="M320 -10q-42 0 -73 12.5t-51 27.5q-25 18 -41 40v-70h-70v700h70v-290q16 22 41 40q20 15 51 27.5t73 12.5q49 0 91.5 -18.5t74.5 -52t50.5 -79.5t18.5 -100t-18.5 -100t-50.5 -79.5t-74.5 -52t-91.5 -18.5zM320 55q34 0 64 13.5t52.5 38t35.5 58.5t13 75t-13 75
t-35.5 58.5t-52.5 38t-64 13.5q-32 0 -61.5 -14t-52.5 -39t-37 -59t-14 -73t14 -73t37 -59t52.5 -39t61.5 -14z" />
    <glyph glyph-name="c" unicode="c" horiz-adv-x="515" 
d="M285 -10q-49 0 -92.5 19.5t-76.5 53t-52 79t-19 98.5q0 52 19 98t52 79.5t76.5 53t92.5 19.5q47 0 83 -15t61 -33q29 -21 51 -47l-50 -50q-16 22 -37 40q-18 15 -45.5 27.5t-62.5 12.5q-34 0 -64.5 -14t-54 -39t-37.5 -59t-14 -73t14 -73t37.5 -59t54 -39t64.5 -14
q35 0 63 12.5t48 27.5q23 18 39 40l50 -45q-23 -28 -53 -50q-26 -19 -63 -34.5t-84 -15.5z" />
    <glyph glyph-name="d" unicode="d" horiz-adv-x="600" 
d="M280 -10q-49 0 -91.5 18.5t-74.5 52t-50.5 79.5t-18.5 100t18.5 100t50.5 79.5t74.5 52t91.5 18.5q42 0 72.5 -12.5t51.5 -27.5q24 -18 41 -40v290h70v-700h-70v70q-17 -22 -41 -40q-21 -15 -51.5 -27.5t-72.5 -12.5zM280 55q32 0 61.5 14t52.5 39t37 59t14 73t-14 73
t-37 59t-52.5 39t-61.5 14q-34 0 -64 -13.5t-52.5 -38t-35.5 -58.5t-13 -75t13 -75t35.5 -58.5t52.5 -38t64 -13.5z" />
    <glyph glyph-name="e" unicode="e" horiz-adv-x="555" 
d="M285 -10q-49 0 -92.5 19.5t-76.5 53t-52 79t-19 98.5q0 52 19 98t51.5 79.5t75 53t89.5 19.5q49 0 91 -18t73 -49.5t48.5 -76t17.5 -96.5q0 -8 -1 -14.5t-2 -11.5q-1 -6 -2 -10l-390 1q2 -32 16 -61t37 -51t53 -35t64 -13q38 0 66.5 12.5t48.5 27.5q23 18 40 40l45 -45
q-21 -28 -51 -50q-26 -19 -63 -34.5t-86 -15.5zM440 275q-4 32 -17.5 59.5t-34.5 47.5t-48.5 31.5t-59.5 11.5t-60.5 -12t-50.5 -33t-36 -48t-18 -57h325z" />
    <glyph glyph-name="f" unicode="f" horiz-adv-x="320" 
d="M105 415h-75v65h75v90q0 68 35 104t95 36q15 0 27.5 -2.5t22.5 -5.5q11 -4 20 -7v-65q-8 3 -19 7q-9 3 -21 5.5t-25 2.5q-30 0 -47.5 -18.5t-17.5 -56.5v-90h115v-65h-115v-415h-70v415z" />
    <glyph glyph-name="g" unicode="g" 
d="M265 -210q-51 0 -88.5 15.5t-62.5 34.5q-29 22 -49 50l45 45q17 -22 40 -40q20 -15 48.5 -27.5t66.5 -12.5q34 0 64 13.5t52.5 36.5t35.5 55t13 70v55q-14 -21 -37 -38q-20 -14 -50 -25.5t-73 -11.5q-47 0 -88 18.5t-71.5 51t-48 76t-17.5 94.5t17.5 94.5t48 76t71.5 51
t88 18.5q43 0 73 -12t50 -26q23 -17 37 -37v65h70v-450q0 -51 -18.5 -94.5t-50.5 -76t-74.5 -51t-91.5 -18.5zM270 75q34 0 63 13.5t50.5 36.5t34 55t12.5 70q0 37 -12.5 69.5t-34 55.5t-50.5 36.5t-63 13.5q-32 0 -60 -13.5t-49 -36.5t-33.5 -55.5t-12.5 -69.5
q0 -38 12.5 -70t33.5 -55t49 -36.5t60 -13.5z" />
    <glyph glyph-name="h" unicode="h" horiz-adv-x="585" 
d="M85 700h70v-290q15 22 38 40q20 15 48.5 27.5t68.5 12.5q43 0 79 -14.5t61.5 -41t40 -64.5t14.5 -85v-285h-70v285q0 64 -36.5 102t-93.5 38q-32 0 -59.5 -11.5t-47.5 -32.5t-31.5 -50.5t-11.5 -65.5v-265h-70v700z" />
    <glyph glyph-name="i" unicode="i" horiz-adv-x="230" 
d="M80 480h70v-480h-70v480zM115 595q-19 0 -32 13t-13 32t13 32t32 13t32 -13t13 -32t-13 -32t-32 -13z" />
    <glyph glyph-name="j" unicode="j" horiz-adv-x="230" 
d="M20 -210q-14 0 -24.5 2t-18.5 5q-10 4 -17 8v65q7 -4 16 -8q17 -7 39 -7q30 0 47.5 18.5t17.5 56.5v550h70v-550q0 -140 -130 -140zM115 595q-19 0 -32 13t-13 32t13 32t32 13t32 -13t13 -32t-13 -32t-32 -13z" />
    <glyph glyph-name="k" unicode="k" horiz-adv-x="510" 
d="M85 700h70v-475l240 255h85l-185 -195l205 -285h-80l-170 235l-95 -100v-135h-70v700z" />
    <glyph glyph-name="l" unicode="l" horiz-adv-x="240" 
d="M85 700h70v-700h-70v700z" />
    <glyph glyph-name="m" unicode="m" horiz-adv-x="870" 
d="M80 480h70v-60q13 19 32 35q17 13 42 24t61 11q43 0 73 -13.5t48 -29.5q21 -18 34 -42q14 24 37 42q20 16 51.5 29.5t76.5 13.5q39 0 73 -13t59 -39t39 -64.5t14 -88.5v-285h-70v285q0 69 -33.5 104.5t-86.5 35.5q-26 0 -49.5 -11t-41.5 -31.5t-28.5 -50.5t-10.5 -67
v-265h-70v285q0 68 -33.5 104t-86.5 36q-26 0 -49.5 -11t-41.5 -31.5t-28.5 -50.5t-10.5 -67v-265h-70v480z" />
    <glyph glyph-name="n" unicode="n" 
d="M80 480h70v-70q15 22 38 40q20 15 48.5 27.5t68.5 12.5q43 0 79 -14.5t61.5 -41t40 -64.5t14.5 -85v-285h-70v285q0 64 -36.5 102t-93.5 38q-32 0 -59.5 -11.5t-47.5 -32.5t-31.5 -50.5t-11.5 -65.5v-265h-70v480z" />
    <glyph glyph-name="o" unicode="o" 
d="M290 -10q-51 0 -95.5 19.5t-77.5 53t-52.5 79t-19.5 98.5q0 52 19.5 98t52.5 79.5t77.5 53t95.5 19.5t95.5 -19.5t77.5 -53t52.5 -79.5t19.5 -98q0 -53 -19.5 -98.5t-52.5 -79t-77.5 -53t-95.5 -19.5zM290 55q36 0 67.5 14t55.5 39t38 59t14 73t-14 73t-38 59t-55.5 39
t-67.5 14t-67.5 -14t-55.5 -39t-38 -59t-14 -73t14 -73t38 -58.5t55.5 -39t67.5 -14.5z" />
    <glyph glyph-name="p" unicode="p" horiz-adv-x="595" 
d="M80 480h70v-70q16 22 41 40q20 15 51 27.5t73 12.5q49 0 91.5 -18.5t74.5 -52t50.5 -79.5t18.5 -100t-18.5 -100t-50.5 -79.5t-74.5 -52t-91.5 -18.5q-42 0 -73 12.5t-51 27.5q-25 18 -41 40v-280h-70v690zM315 55q34 0 64 13.5t52.5 38t35.5 58.5t13 75t-13 75
t-35.5 58.5t-52.5 38t-64 13.5q-32 0 -61.5 -14t-52.5 -39t-37 -59t-14 -73t14 -73t37 -59t52.5 -39t61.5 -14z" />
    <glyph glyph-name="q" unicode="q" horiz-adv-x="595" 
d="M445 70q-17 -22 -41 -40q-21 -15 -51.5 -27.5t-72.5 -12.5q-49 0 -91.5 18.5t-74.5 52t-50.5 79.5t-18.5 100t18.5 100t50.5 79.5t74.5 52t91.5 18.5q42 0 72.5 -12.5t51.5 -27.5q24 -18 41 -40v70h70v-690h-70v280zM280 55q32 0 61.5 14t52.5 39t37 59t14 73t-14 73
t-37 59t-52.5 39t-61.5 14q-34 0 -64 -13.5t-52.5 -38t-35.5 -58.5t-13 -75t13 -75t35.5 -58.5t52.5 -38t64 -13.5z" />
    <glyph glyph-name="r" unicode="r" horiz-adv-x="345" 
d="M80 480h70v-65q16 20 39 37q20 14 49.5 26t71.5 12h20v-70h-30q-30 0 -57 -11t-48 -31t-33 -48.5t-12 -64.5v-265h-70v480z" />
    <glyph glyph-name="s" unicode="s" horiz-adv-x="430" 
d="M210 -10q-45 0 -78 13t-55 29q-26 18 -42 43l50 50q14 -20 32 -35q16 -14 39.5 -24.5t53.5 -10.5q53 0 79 23t26 57q0 27 -19.5 43t-48 26.5t-62.5 20t-62.5 24.5t-48 40t-19.5 66q0 26 11.5 50.5t32.5 43t50.5 30t65.5 11.5q38 0 66.5 -10.5t48.5 -22.5q23 -14 40 -32
l-50 -50q-11 14 -26 25q-14 9 -33.5 17t-45.5 8q-41 0 -65.5 -22t-24.5 -48t19.5 -41t48 -25t62.5 -19.5t62.5 -25t48 -41.5t19.5 -68q0 -30 -12 -56.5t-34.5 -46t-55 -31t-73.5 -11.5z" />
    <glyph glyph-name="t" unicode="t" horiz-adv-x="360" 
d="M252 -10q-62 0 -97 36t-35 104v285h-90v65h55q40 0 40 50v110h65v-160h105v-65h-105v-285q0 -38 17.5 -56.5t47.5 -18.5q13 0 25 2t21 5q11 4 19 8v-65q-9 -4 -20 -8q-9 -3 -21.5 -5t-26.5 -2z" />
    <glyph glyph-name="u" unicode="u" horiz-adv-x="585" 
d="M275 -10q-41 0 -77 15t-62 43t-41 66.5t-15 85.5v280h70v-280q0 -32 10.5 -58.5t29 -46t43 -30t52.5 -10.5q30 0 56.5 11.5t46 32.5t31 50.5t11.5 65.5v265h70v-480h-70v65q-15 -21 -38 -38q-20 -14 -49 -25.5t-68 -11.5z" />
    <glyph glyph-name="v" unicode="v" horiz-adv-x="490" 
d="M15 480h75l155 -385l155 385h75l-195 -480h-70z" />
    <glyph glyph-name="w" unicode="w" horiz-adv-x="730" 
d="M15 480h75l125 -370l120 370h60l120 -370l125 370h75l-165 -480h-65l-120 365l-120 -365h-65z" />
    <glyph glyph-name="x" unicode="x" horiz-adv-x="480" 
d="M195 250l-165 230h85l125 -175l125 175h85l-165 -230l180 -250h-85l-140 195l-140 -195h-85z" />
    <glyph glyph-name="y" unicode="y" horiz-adv-x="490" 
d="M105 -210q-25 0 -43 5q-10 2 -17 5v65q8 -3 16 -5q15 -5 34 -5q34 0 55 18.5t35 56.5l25 70l-195 480h75l155 -390l155 390h75l-220 -550q-30 -75 -64 -107.5t-86 -32.5z" />
    <glyph glyph-name="z" unicode="z" horiz-adv-x="465" 
d="M40 65l290 350h-280v65h365v-65l-290 -350h300v-65h-385v65z" />
    <glyph glyph-name="braceleft" unicode="{" horiz-adv-x="355" 
d="M280 -210q-72 0 -111 37.5t-39 97.5v225q0 70 -70 70v60q70 0 70 70v225q0 60 39 97.5t111 37.5h40v-60h-40q-42 0 -63.5 -20.5t-21.5 -54.5v-225q0 -32 -9.5 -51.5t-20.5 -30.5q-13 -12 -30 -18q17 -6 30 -18q11 -11 20.5 -30.5t9.5 -51.5v-225q0 -34 21.5 -54.5
t63.5 -20.5h40v-60h-40v0z" />
    <glyph glyph-name="bar" unicode="|" horiz-adv-x="305" 
d="M120 710h65v-920h-65v920z" />
    <glyph glyph-name="braceright" unicode="}" horiz-adv-x="355" 
d="M35 -150h40q42 0 63.5 20.5t21.5 54.5v225q0 32 9.5 51.5t20.5 30.5q13 12 30 18q-17 6 -30 18q-11 11 -20.5 30.5t-9.5 51.5v225q0 34 -21.5 54.5t-63.5 20.5h-40v60h40q72 0 111 -37.5t39 -97.5v-225q0 -70 70 -70v-60q-70 0 -70 -70v-225q0 -60 -39 -97.5t-111 -37.5
h-40v60z" />
    <glyph glyph-name="asciitilde" unicode="~" horiz-adv-x="530" 
d="M360 230q-38 0 -61.5 11t-43 24t-38.5 24t-47 11q-25 0 -41.5 -9.5t-27.5 -20.5q-12 -13 -21 -30l-45 35q14 24 34 42q17 16 42 29.5t59 13.5q37 0 61 -11t43.5 -24t38.5 -24t47 -11q24 0 41 9.5t28 20.5q12 13 21 30l45 -35q-15 -25 -34 -43q-17 -16 -42 -29t-59 -13z
" />
    <glyph glyph-name="nonbreakingspace" unicode="&#xa0;" horiz-adv-x="210" 
 />
    <glyph glyph-name="exclamdown" unicode="&#xa1;" horiz-adv-x="280" 
d="M110 310h60l15 -520h-90zM140 390q-23 0 -36.5 13.5t-13.5 36.5t13.5 36.5t36.5 13.5t36.5 -13.5t13.5 -36.5t-13.5 -36.5t-36.5 -13.5z" />
    <glyph glyph-name="cent" unicode="&#xa2;" horiz-adv-x="500" 
d="M250 -7q-41 6 -78.5 26.5t-65.5 52.5t-44.5 74.5t-16.5 93.5q0 49 16.5 91t44.5 74.5t65.5 54t78.5 27.5v103h65v-104q38 -6 66.5 -20.5t48.5 -28.5q23 -18 40 -37l-45 -45q-15 19 -36 35q-18 13 -44 24t-60 11t-64.5 -14t-54 -39t-37.5 -59t-14 -73t14 -73t37.5 -59
t54 -39t64.5 -14t60 10.5t44 24.5q21 15 36 35l45 -45q-17 -21 -40 -39q-20 -15 -48.5 -29t-66.5 -18v-104h-65v103z" />
    <glyph glyph-name="sterling" unicode="&#xa3;" horiz-adv-x="560" 
d="M65 70q30 0 50 19.5t20 45.5v155h-65v70h65v130q0 49 16 89.5t44.5 69.5t68 45t86.5 16q45 0 78.5 -13.5t56.5 -29.5q26 -18 45 -42l-50 -50q-14 18 -33 32q-17 12 -41 22.5t-56 10.5q-30 0 -56.5 -11.5t-46 -31.5t-31 -47.5t-11.5 -59.5v-130h205v-70h-205v-155
q0 -17 -4 -29t-9 -20q-5 -10 -12 -16h350v-70h-465v70z" />
    <glyph glyph-name="currency" unicode="&#xa4;" horiz-adv-x="610" 
d="M100 180l58 58q-8 11 -14 26q-5 13 -9.5 30.5t-4.5 40.5t4.5 40.5t9.5 30.5q6 15 14 26l-58 58l50 50l58 -58q11 8 26 14q13 5 30.5 9.5t40.5 4.5t40.5 -4.5t30.5 -9.5q15 -6 26 -14l58 58l50 -50l-58 -58q8 -11 14 -26q5 -13 9.5 -30.5t4.5 -40.5t-4.5 -40.5t-9.5 -30.5
q-6 -15 -14 -26l58 -58l-50 -50l-58 58q-11 -8 -26 -14q-13 -5 -30.5 -9.5t-40.5 -4.5t-40.5 4.5t-30.5 9.5q-15 6 -26 14l-58 -58zM305 220q49 0 79.5 31t30.5 84t-30.5 84t-79.5 31t-79.5 -31t-30.5 -84t30.5 -84t79.5 -31z" />
    <glyph glyph-name="yen" unicode="&#xa5;" horiz-adv-x="635" 
d="M280 115h-160v65h160v65l-6 10h-154v65h117l-217 380h85l210 -375h5l210 375h85l-218 -380h118v-65h-155l-5 -10v-65h160v-65h-160v-115h-75v115z" />
    <glyph glyph-name="brokenbar" unicode="&#xa6;" horiz-adv-x="305" 
d="M120 170h65v-380h-65v380zM120 710h65v-380h-65v380z" />
    <glyph glyph-name="section" unicode="&#xa7;" horiz-adv-x="540" 
d="M255 -110q-45 0 -78.5 14t-56.5 31q-26 19 -45 45l50 50q14 -21 33 -38q17 -14 41 -25.5t56 -11.5q60 0 92.5 28.5t32.5 66.5q0 30 -23.5 48t-58.5 32.5t-75.5 28t-75.5 33.5t-58.5 50t-23.5 78q0 35 15.5 60.5t34.5 42.5q22 19 50 32q-20 9 -35 24q-14 13 -24.5 32.5
t-10.5 48.5q0 30 12.5 57t36 48t57 33t74.5 12q38 0 68 -11t50 -24q24 -16 42 -35l-50 -46q-13 14 -30 25q-14 10 -34.5 18t-45.5 8q-53 0 -81.5 -25.5t-28.5 -59.5q0 -30 23 -48.5t57.5 -32.5t74.5 -27.5t74.5 -33.5t57.5 -50.5t23 -77.5q0 -36 -15.5 -60.5t-34.5 -40.5
q-22 -18 -50 -29q20 -11 37 -27q14 -14 26 -34.5t12 -48.5q0 -32 -13.5 -61t-39 -51t-61.5 -35t-81 -13zM315 195q25 6 45 18q17 11 31 29.5t14 47.5q0 33 -23 55.5t-53.5 37t-60.5 23t-43 14.5q-26 -7 -45 -20q-17 -11 -31 -30.5t-14 -49.5q0 -33 23 -55t53.5 -35.5
t60.5 -21t43 -13.5z" />
    <glyph glyph-name="dieresis" unicode="&#xa8;" horiz-adv-x="340" 
d="M75 590q-19 0 -32 13t-13 32t13 32t32 13t32 -13t13 -32t-13 -32t-32 -13zM265 590q-19 0 -32 13t-13 32t13 32t32 13t32 -13t13 -32t-13 -32t-32 -13z" />
    <glyph glyph-name="copyright" unicode="&#xa9;" horiz-adv-x="880" 
d="M440 -10q-77 0 -143.5 28t-115.5 77t-77.5 114.5t-28.5 140.5t28.5 140.5t77.5 114.5t115.5 77t143.5 28q76 0 143 -28t116 -77t77.5 -114.5t28.5 -140.5t-28.5 -140.5t-77.5 -114.5t-116 -77t-143 -28zM440 50q64 0 118.5 23t95 63.5t63.5 95t23 118.5t-23 118.5
t-63.5 95t-95 63.5t-118.5 23t-118.5 -23t-95 -63.5t-63.5 -95t-23 -118.5t23 -118.5t63.5 -95t95 -63.5t118.5 -23zM445 160q-41 0 -76 14t-60.5 39.5t-39.5 60.5t-14 76t14 76t39.5 60.5t60.5 39.5t76 14q38 0 65.5 -12t46.5 -26q22 -17 38 -37l-40 -40q-11 15 -27 27
q-14 11 -34.5 19.5t-48.5 8.5q-57 0 -93.5 -36.5t-36.5 -93.5t36.5 -93.5t93.5 -36.5q28 0 48.5 8t34.5 19q16 12 27 28l40 -40q-16 -21 -38 -38q-19 -14 -46.5 -25.5t-65.5 -11.5z" />
    <glyph glyph-name="ordfeminine" unicode="&#xaa;" horiz-adv-x="330" 
d="M130 405q-21 0 -38 7t-30 18t-20 25.5t-7 29.5q0 73 90 90l105 20q0 30 -17.5 47.5t-47.5 17.5q-19 0 -33 -6t-23 -14q-11 -9 -19 -20l-35 30q11 17 27 30q14 11 34 20.5t49 9.5q57 0 86 -28.5t29 -81.5v-185h-50v40q-8 -14 -22 -25q-12 -10 -31 -17.5t-47 -7.5zM140 450
q38 0 64 25.5t26 64.5v10l-95 -20q-45 -9 -45 -40q0 -40 50 -40z" />
    <glyph glyph-name="guillemotleft" unicode="&#xab;" horiz-adv-x="465" 
d="M45 240l115 165h75l-115 -165l115 -165h-75zM230 240l115 165h75l-115 -165l115 -165h-75z" />
    <glyph glyph-name="logicalnot" unicode="&#xac;" horiz-adv-x="460" 
d="M350 325h-305v65h375v-205h-70v140z" />
    <glyph glyph-name="uni00AD" unicode="&#xad;" horiz-adv-x="395" 
d="M45 330h305v-65h-305v65z" />
    <glyph glyph-name="registered" unicode="&#xae;" horiz-adv-x="880" 
d="M440 -10q-77 0 -143.5 28t-115.5 77t-77.5 114.5t-28.5 140.5t28.5 140.5t77.5 114.5t115.5 77t143.5 28q76 0 143 -28t116 -77t77.5 -114.5t28.5 -140.5t-28.5 -140.5t-77.5 -114.5t-116 -77t-143 -28zM440 50q64 0 118.5 23t95 63.5t63.5 95t23 118.5t-23 118.5
t-63.5 95t-95 63.5t-118.5 23t-118.5 -23t-95 -63.5t-63.5 -95t-23 -118.5t23 -118.5t63.5 -95t95 -63.5t118.5 -23zM315 535h141q56 0 90 -33t34 -82q0 -29 -11 -47.5t-24 -30.5q-16 -14 -35 -22l90 -155h-64l-76 140h-85v-140h-60v370zM460 365q65 0 65 55t-65 55h-85
v-110h85z" />
    <glyph glyph-name="macron" unicode="&#xaf;" horiz-adv-x="350" 
d="M30 690h290v-55h-290v55z" />
    <glyph glyph-name="degree" unicode="&#xb0;" horiz-adv-x="360" 
d="M180 440q-30 0 -55.5 10.5t-44.5 29t-29.5 43t-10.5 52.5t10.5 52.5t29.5 43t44.5 29t55.5 10.5t55.5 -10.5t44.5 -29t29.5 -43t10.5 -52.5t-10.5 -52.5t-29.5 -43t-44.5 -29t-55.5 -10.5zM180 495q34 0 57 23t23 57t-23 57t-57 23t-57 -23t-23 -57t23 -57t57 -23z" />
    <glyph glyph-name="plusminus" unicode="&#xb1;" horiz-adv-x="515" 
d="M45 90h425v-65h-425v65zM225 345h-185v65h185v190h65v-190h185v-65h-185v-190h-65v190z" />
    <glyph glyph-name="uni00B2" unicode="&#xb2;" horiz-adv-x="300" 
d="M30 450q0 37 13.5 65t33.5 49t43 37.5t43 31.5t33.5 31t13.5 36q0 23 -17 39t-43 16q-19 0 -32.5 -8.5t-21.5 -19.5q-10 -12 -16 -27l-45 15q7 25 22 45q13 17 35 31t58 14q53 0 84 -30t31 -75q0 -28 -10 -47.5t-26 -35.5t-35.5 -28.5t-38.5 -25.5t-35 -28t-25 -35h170
v-50h-235v0z" />
    <glyph glyph-name="uni00B3" unicode="&#xb3;" horiz-adv-x="310" 
d="M155 445q-34 0 -58.5 9.5t-40.5 20.5q-18 13 -31 30l35 40q11 -14 25 -25q12 -10 29.5 -17.5t40.5 -7.5q65 0 65 55q0 26 -18 43t-52 17h-40v50h40q26 0 40.5 13.5t14.5 36.5q0 19 -15 32t-45 13q-18 0 -32 -7t-23 -15q-11 -10 -19 -22l-36 37q12 16 28 28q14 11 34 20
t48 9q53 0 84 -28.5t31 -66.5q0 -23 -6 -37.5t-14 -22.5q-9 -10 -20 -15q15 -5 27 -16q11 -10 19.5 -26.5t8.5 -42.5q0 -45 -31.5 -75t-88.5 -30z" />
    <glyph glyph-name="acute" unicode="&#xb4;" horiz-adv-x="210" 
d="M105 700h75l-95 -135h-55z" />
    <glyph glyph-name="uni00B5" unicode="&#xb5;" 
d="M75 480h70v-285q0 -64 36.5 -102t93.5 -38q30 0 55.5 11t44.5 31t29.5 48.5t10.5 64.5v270h70v-380q0 -19 13 -32t32 -13q10 0 18 2q4 1 7 3v-65q-4 -2 -8 -3t-9 -1.5t-13 -0.5q-38 0 -58.5 12.5t-31.5 27.5q-12 18 -15 40q-15 -22 -36 -40q-18 -15 -46.5 -27.5
t-67.5 -12.5q-32 0 -55 6t-39 14q-18 9 -31 20v-240h-70v690z" />
    <glyph glyph-name="paragraph" unicode="&#xb6;" horiz-adv-x="540" 
d="M210 370q-34 0 -64 13t-52.5 35.5t-35.5 52.5t-13 64t13 64t35.5 52.5t52.5 35.5t64 13h235v-800h-65v735h-105v-735h-65v470z" />
    <glyph glyph-name="periodcentered" unicode="&#xb7;" horiz-adv-x="210" 
d="M105 200q-23 0 -36.5 13.5t-13.5 36.5t13.5 36.5t36.5 13.5t36.5 -13.5t13.5 -36.5t-13.5 -36.5t-36.5 -13.5z" />
    <glyph glyph-name="cedilla" unicode="&#xb8;" horiz-adv-x="240" 
d="M115 -205q-19 0 -34.5 5t-26.5 11q-13 7 -24 16l20 33q7 -8 17 -13q8 -5 20.5 -8.5t27.5 -3.5q23 0 36.5 12.5t13.5 27.5t-10.5 25t-29.5 10q-7 0 -12.5 -1.5t-9.5 -3.5q-4 -3 -8 -5l-25 25l45 95h45l-35 -75h5q38 0 59 -20t21 -52t-25 -55t-70 -23z" />
    <glyph glyph-name="uni00B9" unicode="&#xb9;" horiz-adv-x="220" 
d="M95 715h-65v40q23 0 37.5 7t22.5 15q10 10 15 23h45v-350h-55v265z" />
    <glyph glyph-name="ordmasculine" unicode="&#xba;" horiz-adv-x="360" 
d="M180 400q-32 0 -59.5 11.5t-47.5 32t-31.5 49t-11.5 62.5t11.5 62.5t31.5 49t47.5 32t59.5 11.5t59.5 -11.5t47.5 -32t31.5 -49t11.5 -62.5t-11.5 -62.5t-31.5 -49t-47.5 -32t-59.5 -11.5zM180 450q42 0 68.5 28t26.5 77t-26.5 77t-68.5 28t-68.5 -28t-26.5 -77t26.5 -77
t68.5 -28z" />
    <glyph glyph-name="guillemotright" unicode="&#xbb;" horiz-adv-x="465" 
d="M160 240l-115 165h75l115 -165l-115 -165h-75zM345 240l-115 165h75l115 -165l-115 -165h-75z" />
    <glyph glyph-name="onequarter" unicode="&#xbc;" horiz-adv-x="655" 
d="M495 700h65l-430 -700h-65zM105 615h-65v40q23 0 37.5 7t22.5 15q10 10 15 23h45v-350h-55v265zM530 80h-165v50l155 220h65v-220h40v-50h-40v-80h-55v80zM530 130v155l-110 -155h110z" />
    <glyph glyph-name="onehalf" unicode="&#xbd;" horiz-adv-x="690" 
d="M495 700h65l-430 -700h-65zM105 615h-65v40q23 0 37.5 7t22.5 15q10 10 15 23h45v-350h-55v265zM415 0q0 37 13.5 65t33.5 49t43 37.5t43 31.5t33.5 31t13.5 36q0 23 -17 39t-43 16q-19 0 -32.5 -8.5t-21.5 -19.5q-10 -12 -16 -27l-45 15q7 25 22 45q13 17 35 31t58 14
q53 0 84 -30t31 -75q0 -28 -10 -47.5t-26 -35.5t-35.5 -28.5t-38.5 -25.5t-35 -28t-25 -35h170v-50h-235v0z" />
    <glyph glyph-name="threequarters" unicode="&#xbe;" horiz-adv-x="720" 
d="M560 700h65l-430 -700h-65zM160 345q-34 0 -58.5 9.5t-40.5 20.5q-18 13 -31 30l35 40q11 -14 25 -25q12 -10 29.5 -17.5t40.5 -7.5q65 0 65 55q0 26 -18 43t-52 17h-40v50h40q26 0 40.5 13.5t14.5 36.5q0 19 -15 32t-45 13q-18 0 -32 -7t-23 -15q-11 -10 -19 -22l-36 37
q12 16 28 28q14 11 34 20t48 9q53 0 84 -28.5t31 -66.5q0 -23 -6 -37.5t-14 -22.5q-9 -10 -20 -15q15 -5 27 -16q11 -10 19.5 -26.5t8.5 -42.5q0 -45 -31.5 -75t-88.5 -30zM595 80h-165v50l155 220h65v-220h40v-50h-40v-80h-55v80zM595 130v155l-110 -155h110z" />
    <glyph glyph-name="questiondown" unicode="&#xbf;" horiz-adv-x="465" 
d="M250 -220q-49 0 -89.5 15.5t-69.5 42t-45 60.5t-16 72q0 47 14.5 78t36 53t47 38.5t47 36.5t36 46.5t14.5 67.5v20h70l2 -14q1 -6 2 -14.5t1 -16.5q0 -40 -14.5 -68t-36 -49.5t-47 -39.5t-47 -37.5t-36 -43t-14.5 -57.5q0 -24 10 -46t28.5 -38.5t45.5 -26t61 -9.5
q49 0 78.5 17t45.5 38q18 24 26 55l65 -20q-13 -45 -40 -80q-23 -30 -65.5 -55t-109.5 -25zM260 390q-23 0 -36.5 13.5t-13.5 36.5t13.5 36.5t36.5 13.5t36.5 -13.5t13.5 -36.5t-13.5 -36.5t-36.5 -13.5z" />
    <glyph glyph-name="Agrave" unicode="&#xc0;" horiz-adv-x="690" 
d="M310 700h70l290 -700h-80l-80 195h-330l-80 -195h-80zM480 265l-135 330l-135 -330h270zM220 930h75l75 -135h-55z" />
    <glyph glyph-name="Aacute" unicode="&#xc1;" horiz-adv-x="690" 
d="M310 700h70l290 -700h-80l-80 195h-330l-80 -195h-80zM480 265l-135 330l-135 -330h270zM395 930h75l-95 -135h-55z" />
    <glyph glyph-name="Acircumflex" unicode="&#xc2;" horiz-adv-x="690" 
d="M310 700h70l290 -700h-80l-80 195h-330l-80 -195h-80zM480 265l-135 330l-135 -330h270zM310 930h70l110 -135h-65l-80 95l-80 -95h-65z" />
    <glyph glyph-name="Atilde" unicode="&#xc3;" horiz-adv-x="690" 
d="M310 700h70l290 -700h-80l-80 195h-330l-80 -195h-80zM480 265l-135 330l-135 -330h270zM190 795q0 60 26 90t64 30q26 0 43.5 -10t31 -22.5t26 -22.5t29.5 -10q15 0 27.5 15.5t12.5 49.5h50q0 -60 -26 -90t-64 -30q-26 0 -43.5 10t-31 22.5t-26 22.5t-29.5 10
q-15 0 -27.5 -15.5t-12.5 -49.5h-50v0z" />
    <glyph glyph-name="Adieresis" unicode="&#xc4;" horiz-adv-x="690" 
d="M310 700h70l290 -700h-80l-80 195h-330l-80 -195h-80zM480 265l-135 330l-135 -330h270zM250 810q-19 0 -32 13t-13 32t13 32t32 13t32 -13t13 -32t-13 -32t-32 -13zM440 810q-19 0 -32 13t-13 32t13 32t32 13t32 -13t13 -32t-13 -32t-32 -13z" />
    <glyph glyph-name="Aring" unicode="&#xc5;" horiz-adv-x="690" 
d="M310 700h70l290 -700h-80l-80 195h-330l-80 -195h-80zM480 265l-135 330l-135 -330h270zM345 770q-20 0 -37 7t-30 19t-20.5 28.5t-7.5 35.5t7.5 35.5t20.5 28.5t30 19t37 7q19 0 36.5 -7t30.5 -19t20.5 -28.5t7.5 -35.5t-7.5 -35.5t-20.5 -28.5t-30.5 -19t-36.5 -7z
M345 815q19 0 32 13t13 32t-13 32t-32 13t-32 -13t-13 -32t13 -32t32 -13z" />
    <glyph glyph-name="AE" unicode="&#xc6;" horiz-adv-x="950" 
d="M360 700h535v-70h-360v-230h280v-70h-280v-260h370v-70h-445v205h-295l-115 -205h-80zM460 275v355h-60l-200 -355h260z" />
    <glyph glyph-name="Ccedilla" unicode="&#xc7;" horiz-adv-x="750" 
d="M400 -205q-19 0 -34.5 5t-26.5 11q-13 7 -24 16l20 33q7 -8 17 -13q8 -5 20.5 -8.5t27.5 -3.5q23 0 36.5 12.5t13.5 27.5t-10.5 25t-29.5 10q-7 0 -12.5 -1.5t-9.5 -3.5q-4 -3 -8 -5l-25 25l31 67q-69 6 -128.5 36t-103.5 78t-69 110.5t-25 133.5q0 75 28 140.5t77 114.5
t114.5 77t140.5 28q72 0 125 -23t89 -50q41 -32 71 -72l-50 -45q-24 34 -58 60q-29 23 -73 41.5t-104 18.5t-112 -22t-90.5 -61t-60.5 -92t-22 -115t22 -115t60.5 -92t90.5 -61t112 -22t105 18.5t75 41.5q35 26 60 60l50 -45q-30 -39 -71 -70q-18 -13 -39.5 -26t-48 -23.5
t-56.5 -17t-64 -7.5l-21 -46h5q38 0 59 -20t21 -52t-25 -55t-70 -23z" />
    <glyph glyph-name="Egrave" unicode="&#xc8;" horiz-adv-x="640" 
d="M105 700h480v-70h-405v-230h325v-70h-325v-260h415v-70h-490v700zM240 930h75l75 -135h-55z" />
    <glyph glyph-name="Eacute" unicode="&#xc9;" horiz-adv-x="640" 
d="M105 700h480v-70h-405v-230h325v-70h-325v-260h415v-70h-490v700zM390 930h75l-95 -135h-55z" />
    <glyph glyph-name="Ecircumflex" unicode="&#xca;" horiz-adv-x="640" 
d="M105 700h480v-70h-405v-230h325v-70h-325v-260h415v-70h-490v700zM315 930h70l110 -135h-65l-80 95l-80 -95h-65z" />
    <glyph glyph-name="Edieresis" unicode="&#xcb;" horiz-adv-x="640" 
d="M105 700h480v-70h-405v-230h325v-70h-325v-260h415v-70h-490v700zM255 810q-19 0 -32 13t-13 32t13 32t32 13t32 -13t13 -32t-13 -32t-32 -13zM445 810q-19 0 -32 13t-13 32t13 32t32 13t32 -13t13 -32t-13 -32t-32 -13z" />
    <glyph glyph-name="Igrave" unicode="&#xcc;" horiz-adv-x="285" 
d="M105 700h75v-700h-75v700zM20 930h75l75 -135h-55z" />
    <glyph glyph-name="Iacute" unicode="&#xcd;" horiz-adv-x="285" 
d="M105 700h75v-700h-75v700zM195 930h75l-95 -135h-55z" />
    <glyph glyph-name="Icircumflex" unicode="&#xce;" horiz-adv-x="285" 
d="M105 700h75v-700h-75v700zM110 930h70l110 -135h-65l-80 95l-80 -95h-65z" />
    <glyph glyph-name="Idieresis" unicode="&#xcf;" horiz-adv-x="285" 
d="M105 700h75v-700h-75v700zM50 810q-19 0 -32 13t-13 32t13 32t32 13t32 -13t13 -32t-13 -32t-32 -13zM240 810q-19 0 -32 13t-13 32t13 32t32 13t32 -13t13 -32t-13 -32t-32 -13z" />
    <glyph glyph-name="Eth" unicode="&#xd0;" horiz-adv-x="765" 
d="M120 315h-95v70h95v315h220q77 0 143.5 -28t116 -76t77.5 -111.5t28 -134.5t-28 -134.5t-77.5 -111.5t-116 -76t-143.5 -28h-220v315zM340 70q62 0 115 22t92 60t61 89t22 109t-22 109t-61 89t-92 60t-115 22h-145v-245h170v-70h-170v-245h145z" />
    <glyph glyph-name="Ntilde" unicode="&#xd1;" horiz-adv-x="780" 
d="M105 700h65l430 -565v565h75v-700h-65l-430 565v-565h-75v700zM235 795q0 60 26 90t64 30q26 0 43.5 -10t31 -22.5t26 -22.5t29.5 -10q15 0 27.5 15.5t12.5 49.5h50q0 -60 -26 -90t-64 -30q-26 0 -43.5 10t-31 22.5t-26 22.5t-29.5 10q-15 0 -27.5 -15.5t-12.5 -49.5h-50
v0z" />
    <glyph glyph-name="Ograve" unicode="&#xd2;" horiz-adv-x="840" 
d="M420 -10q-75 0 -140.5 28t-114.5 77t-77 114.5t-28 140.5t28 140.5t77 114.5t114.5 77t140.5 28t140.5 -28t114.5 -77t77 -114.5t28 -140.5t-28 -140.5t-77 -114.5t-114.5 -77t-140.5 -28zM420 60q60 0 112 22t90.5 61t60.5 92t22 115t-22 115t-60.5 92t-90.5 61t-112 22
t-112 -22t-90.5 -61t-60.5 -92t-22 -115t22 -115t60.5 -92t90.5 -61t112 -22zM295 930h75l75 -135h-55z" />
    <glyph glyph-name="Oacute" unicode="&#xd3;" horiz-adv-x="840" 
d="M420 -10q-75 0 -140.5 28t-114.5 77t-77 114.5t-28 140.5t28 140.5t77 114.5t114.5 77t140.5 28t140.5 -28t114.5 -77t77 -114.5t28 -140.5t-28 -140.5t-77 -114.5t-114.5 -77t-140.5 -28zM420 60q60 0 112 22t90.5 61t60.5 92t22 115t-22 115t-60.5 92t-90.5 61t-112 22
t-112 -22t-90.5 -61t-60.5 -92t-22 -115t22 -115t60.5 -92t90.5 -61t112 -22zM470 930h75l-95 -135h-55z" />
    <glyph glyph-name="Ocircumflex" unicode="&#xd4;" horiz-adv-x="840" 
d="M420 -10q-75 0 -140.5 28t-114.5 77t-77 114.5t-28 140.5t28 140.5t77 114.5t114.5 77t140.5 28t140.5 -28t114.5 -77t77 -114.5t28 -140.5t-28 -140.5t-77 -114.5t-114.5 -77t-140.5 -28zM420 60q60 0 112 22t90.5 61t60.5 92t22 115t-22 115t-60.5 92t-90.5 61t-112 22
t-112 -22t-90.5 -61t-60.5 -92t-22 -115t22 -115t60.5 -92t90.5 -61t112 -22zM385 930h70l110 -135h-65l-80 95l-80 -95h-65z" />
    <glyph glyph-name="Otilde" unicode="&#xd5;" horiz-adv-x="840" 
d="M420 -10q-75 0 -140.5 28t-114.5 77t-77 114.5t-28 140.5t28 140.5t77 114.5t114.5 77t140.5 28t140.5 -28t114.5 -77t77 -114.5t28 -140.5t-28 -140.5t-77 -114.5t-114.5 -77t-140.5 -28zM420 60q60 0 112 22t90.5 61t60.5 92t22 115t-22 115t-60.5 92t-90.5 61t-112 22
t-112 -22t-90.5 -61t-60.5 -92t-22 -115t22 -115t60.5 -92t90.5 -61t112 -22zM265 795q0 60 26 90t64 30q26 0 43.5 -10t31 -22.5t26 -22.5t29.5 -10q15 0 27.5 15.5t12.5 49.5h50q0 -60 -26 -90t-64 -30q-26 0 -43.5 10t-31 22.5t-26 22.5t-29.5 10q-15 0 -27.5 -15.5
t-12.5 -49.5h-50v0z" />
    <glyph glyph-name="Odieresis" unicode="&#xd6;" horiz-adv-x="840" 
d="M420 -10q-75 0 -140.5 28t-114.5 77t-77 114.5t-28 140.5t28 140.5t77 114.5t114.5 77t140.5 28t140.5 -28t114.5 -77t77 -114.5t28 -140.5t-28 -140.5t-77 -114.5t-114.5 -77t-140.5 -28zM420 60q60 0 112 22t90.5 61t60.5 92t22 115t-22 115t-60.5 92t-90.5 61t-112 22
t-112 -22t-90.5 -61t-60.5 -92t-22 -115t22 -115t60.5 -92t90.5 -61t112 -22zM325 810q-19 0 -32 13t-13 32t13 32t32 13t32 -13t13 -32t-13 -32t-32 -13zM515 810q-19 0 -32 13t-13 32t13 32t32 13t32 -13t13 -32t-13 -32t-32 -13z" />
    <glyph glyph-name="multiply" unicode="&#xd7;" horiz-adv-x="490" 
d="M60 170l140 140l-140 140l45 45l140 -140l140 140l45 -45l-140 -140l140 -140l-45 -45l-140 140l-140 -140z" />
    <glyph glyph-name="Oslash" unicode="&#xd8;" horiz-adv-x="840" 
d="M50 30l90 90q-22 27 -40 62q-15 30 -27.5 72.5t-12.5 95.5q0 75 28 140.5t77 114.5t114.5 77t140.5 28q53 0 95 -12.5t72 -27.5q35 -18 63 -40l90 90l50 -50l-90 -90q22 -28 40 -63q15 -30 27.5 -72t12.5 -95q0 -75 -28 -140.5t-77 -114.5t-114.5 -77t-140.5 -28
q-53 0 -95.5 12.5t-72.5 27.5q-35 18 -62 40l-90 -90zM600 580q-22 17 -49 30q-23 11 -56 20.5t-75 9.5q-60 0 -112 -22t-90.5 -61t-60.5 -92t-22 -115q0 -42 8 -75t19 -56q12 -27 28 -49zM420 60q60 0 112 22t90.5 61t60.5 92t22 115q0 42 -8.5 75t-19.5 56q-12 27 -27 49
l-410 -410q22 -17 49 -30q23 -11 56 -20.5t75 -9.5z" />
    <glyph glyph-name="Ugrave" unicode="&#xd9;" horiz-adv-x="760" 
d="M380 -10q-60 0 -112 22t-90.5 60.5t-60.5 90.5t-22 112v425h75v-425q0 -47 16 -86.5t44 -68t66.5 -44.5t83.5 -16t83.5 16t66.5 44.5t44 68t16 86.5v425h75v-425q0 -60 -22 -112t-60.5 -90.5t-90.5 -60.5t-112 -22zM260 930h75l75 -135h-55z" />
    <glyph glyph-name="Uacute" unicode="&#xda;" horiz-adv-x="760" 
d="M380 -10q-60 0 -112 22t-90.5 60.5t-60.5 90.5t-22 112v425h75v-425q0 -47 16 -86.5t44 -68t66.5 -44.5t83.5 -16t83.5 16t66.5 44.5t44 68t16 86.5v425h75v-425q0 -60 -22 -112t-60.5 -90.5t-90.5 -60.5t-112 -22zM425 930h75l-95 -135h-55z" />
    <glyph glyph-name="Ucircumflex" unicode="&#xdb;" horiz-adv-x="760" 
d="M380 -10q-60 0 -112 22t-90.5 60.5t-60.5 90.5t-22 112v425h75v-425q0 -47 16 -86.5t44 -68t66.5 -44.5t83.5 -16t83.5 16t66.5 44.5t44 68t16 86.5v425h75v-425q0 -60 -22 -112t-60.5 -90.5t-90.5 -60.5t-112 -22zM345 930h70l110 -135h-65l-80 95l-80 -95h-65z" />
    <glyph glyph-name="Udieresis" unicode="&#xdc;" horiz-adv-x="760" 
d="M380 -10q-60 0 -112 22t-90.5 60.5t-60.5 90.5t-22 112v425h75v-425q0 -47 16 -86.5t44 -68t66.5 -44.5t83.5 -16t83.5 16t66.5 44.5t44 68t16 86.5v425h75v-425q0 -60 -22 -112t-60.5 -90.5t-90.5 -60.5t-112 -22zM285 810q-19 0 -32 13t-13 32t13 32t32 13t32 -13
t13 -32t-13 -32t-32 -13zM475 810q-19 0 -32 13t-13 32t13 32t32 13t32 -13t13 -32t-13 -32t-32 -13z" />
    <glyph glyph-name="Yacute" unicode="&#xdd;" horiz-adv-x="635" 
d="M280 245l-260 455h85l210 -375h5l210 375h85l-260 -455v-245h-75v245zM365 930h75l-95 -135h-55z" />
    <glyph glyph-name="Thorn" unicode="&#xde;" horiz-adv-x="710" 
d="M105 700h75v-140h245q109 0 167 -55t58 -145t-58 -145t-167 -55h-245v-160h-75v700zM425 230q75 0 112.5 35t37.5 95t-37.5 95t-112.5 35h-245v-260h245z" />
    <glyph glyph-name="germandbls" unicode="&#xdf;" horiz-adv-x="585" 
d="M85 520q0 39 15 74t42 60.5t63.5 40.5t79.5 15t79.5 -15t63.5 -40t42 -59t15 -71t-13.5 -63.5t-29.5 -43.5q-18 -20 -42 -33q37 -14 67 -38q26 -21 47 -55t21 -87q0 -43 -16 -80.5t-44.5 -65t-68 -43.5t-86.5 -16h-45v70h45q32 0 58.5 10.5t46 29t30 43t10.5 52.5
t-10.5 52.5t-30 43t-46 29t-58.5 10.5h-45v70h10q26 0 49.5 9t41.5 24.5t28.5 36.5t10.5 45t-10 46t-27 38.5t-41 26t-52 9.5t-52 -9.5t-41 -26.5t-27 -40t-10 -49v-520h-70v520z" />
    <glyph glyph-name="agrave" unicode="&#xe0;" horiz-adv-x="520" 
d="M215 -10q-38 0 -69 12t-53.5 31.5t-35 45t-12.5 51.5q0 60 36 97t104 48l185 30q0 53 -33.5 86.5t-86.5 33.5q-32 0 -57 -11t-42 -24q-20 -16 -36 -35l-45 45q20 25 47 45q23 17 56 31t77 14q41 0 76 -14t60.5 -39t39.5 -59t14 -73v-305h-70v65q-15 -21 -38 -38
q-20 -14 -49 -25.5t-68 -11.5zM215 55q34 0 62.5 11.5t49 32.5t32 50.5t11.5 65.5v30l-165 -30q-90 -17 -90 -85q0 -30 25.5 -52.5t74.5 -22.5zM145 700h75l75 -135h-55z" />
    <glyph glyph-name="aacute" unicode="&#xe1;" horiz-adv-x="520" 
d="M215 -10q-38 0 -69 12t-53.5 31.5t-35 45t-12.5 51.5q0 60 36 97t104 48l185 30q0 53 -33.5 86.5t-86.5 33.5q-32 0 -57 -11t-42 -24q-20 -16 -36 -35l-45 45q20 25 47 45q23 17 56 31t77 14q41 0 76 -14t60.5 -39t39.5 -59t14 -73v-305h-70v65q-15 -21 -38 -38
q-20 -14 -49 -25.5t-68 -11.5zM215 55q34 0 62.5 11.5t49 32.5t32 50.5t11.5 65.5v30l-165 -30q-90 -17 -90 -85q0 -30 25.5 -52.5t74.5 -22.5zM310 700h75l-95 -135h-55z" />
    <glyph glyph-name="acircumflex" unicode="&#xe2;" horiz-adv-x="520" 
d="M215 -10q-38 0 -69 12t-53.5 31.5t-35 45t-12.5 51.5q0 60 36 97t104 48l185 30q0 53 -33.5 86.5t-86.5 33.5q-32 0 -57 -11t-42 -24q-20 -16 -36 -35l-45 45q20 25 47 45q23 17 56 31t77 14q41 0 76 -14t60.5 -39t39.5 -59t14 -73v-305h-70v65q-15 -21 -38 -38
q-20 -14 -49 -25.5t-68 -11.5zM215 55q34 0 62.5 11.5t49 32.5t32 50.5t11.5 65.5v30l-165 -30q-90 -17 -90 -85q0 -30 25.5 -52.5t74.5 -22.5zM230 700h70l110 -135h-65l-80 95l-80 -95h-65z" />
    <glyph glyph-name="atilde" unicode="&#xe3;" horiz-adv-x="520" 
d="M215 -10q-38 0 -69 12t-53.5 31.5t-35 45t-12.5 51.5q0 60 36 97t104 48l185 30q0 53 -33.5 86.5t-86.5 33.5q-32 0 -57 -11t-42 -24q-20 -16 -36 -35l-45 45q20 25 47 45q23 17 56 31t77 14q41 0 76 -14t60.5 -39t39.5 -59t14 -73v-305h-70v65q-15 -21 -38 -38
q-20 -14 -49 -25.5t-68 -11.5zM215 55q34 0 62.5 11.5t49 32.5t32 50.5t11.5 65.5v30l-165 -30q-90 -17 -90 -85q0 -30 25.5 -52.5t74.5 -22.5zM110 565q0 60 26 90t64 30q26 0 43.5 -10t31 -22.5t26 -22.5t29.5 -10q15 0 27.5 15.5t12.5 49.5h50q0 -60 -26 -90t-64 -30
q-26 0 -43.5 10t-31 22.5t-26 22.5t-29.5 10q-15 0 -27.5 -15.5t-12.5 -49.5h-50v0z" />
    <glyph glyph-name="adieresis" unicode="&#xe4;" horiz-adv-x="520" 
d="M215 -10q-38 0 -69 12t-53.5 31.5t-35 45t-12.5 51.5q0 60 36 97t104 48l185 30q0 53 -33.5 86.5t-86.5 33.5q-32 0 -57 -11t-42 -24q-20 -16 -36 -35l-45 45q20 25 47 45q23 17 56 31t77 14q41 0 76 -14t60.5 -39t39.5 -59t14 -73v-305h-70v65q-15 -21 -38 -38
q-20 -14 -49 -25.5t-68 -11.5zM215 55q34 0 62.5 11.5t49 32.5t32 50.5t11.5 65.5v30l-165 -30q-90 -17 -90 -85q0 -30 25.5 -52.5t74.5 -22.5zM170 585q-19 0 -32 13t-13 32t13 32t32 13t32 -13t13 -32t-13 -32t-32 -13zM360 585q-19 0 -32 13t-13 32t13 32t32 13t32 -13
t13 -32t-13 -32t-32 -13z" />
    <glyph glyph-name="aring" unicode="&#xe5;" horiz-adv-x="520" 
d="M215 -10q-38 0 -69 12t-53.5 31.5t-35 45t-12.5 51.5q0 60 36 97t104 48l185 30q0 53 -33.5 86.5t-86.5 33.5q-32 0 -57 -11t-42 -24q-20 -16 -36 -35l-45 45q20 25 47 45q23 17 56 31t77 14q41 0 76 -14t60.5 -39t39.5 -59t14 -73v-305h-70v65q-15 -21 -38 -38
q-20 -14 -49 -25.5t-68 -11.5zM215 55q34 0 62.5 11.5t49 32.5t32 50.5t11.5 65.5v30l-165 -30q-90 -17 -90 -85q0 -30 25.5 -52.5t74.5 -22.5zM265 550q-20 0 -37 7t-30 19t-20.5 28.5t-7.5 35.5t7.5 35.5t20.5 28.5t30 19t37 7q19 0 36.5 -7t30.5 -19t20.5 -28.5
t7.5 -35.5t-7.5 -35.5t-20.5 -28.5t-30.5 -19t-36.5 -7zM265 595q19 0 32 13t13 32t-13 32t-32 13t-32 -13t-13 -32t13 -32t32 -13z" />
    <glyph glyph-name="ae" unicode="&#xe6;" horiz-adv-x="870" 
d="M215 -10q-39 0 -70.5 11.5t-53.5 30.5t-34 44.5t-12 53.5q0 30 12.5 57t34.5 48t52 33t66 12h165v15q0 58 -33.5 94t-86.5 36q-32 0 -56 -11t-41 -24q-19 -16 -33 -35l-45 45q18 25 44 45q22 17 54.5 31t75.5 14q45 0 76.5 -15.5t51.5 -34.5q23 -22 38 -50q20 28 47 50
q23 19 58 34.5t80 15.5t85 -18t70 -50t47.5 -77.5t17.5 -99.5q0 -6 -1 -11l-2 -10t-2 -9h-375q2 -32 16 -61t37 -51t52.5 -35t61.5 -13q38 0 65.5 12.5t46.5 27.5q22 18 38 40l46 -45q-21 -28 -50 -50q-25 -19 -61.5 -34.5t-84.5 -15.5q-51 0 -89 18.5t-63 41.5
q-30 26 -50 60q-16 -34 -43 -60q-23 -23 -60.5 -41.5t-91.5 -18.5zM215 55q36 0 65.5 13t50.5 35t32.5 51t11.5 61h-165q-45 0 -70 -23.5t-25 -61.5q0 -30 25.5 -52.5t74.5 -22.5zM760 280q-11 64 -53 104.5t-102 40.5q-30 0 -57.5 -12t-49 -32.5t-35.5 -46.5t-18 -54h315z
" />
    <glyph glyph-name="ccedilla" unicode="&#xe7;" horiz-adv-x="515" 
d="M270 -205q-19 0 -34.5 5t-26.5 11q-13 7 -24 16l20 33q7 -8 17 -13q8 -5 20.5 -8.5t27.5 -3.5q23 0 36.5 12.5t13.5 27.5t-10.5 25t-29.5 10q-7 0 -12.5 -1.5t-9.5 -3.5q-4 -3 -8 -5l-25 25l31 67q-44 5 -82.5 26t-67 54t-45 76t-16.5 92q0 52 19 98t52 79.5t76.5 53
t92.5 19.5q47 0 83 -15t61 -33q29 -21 51 -47l-50 -50q-16 22 -37 40q-18 15 -45.5 27.5t-62.5 12.5q-34 0 -64.5 -14t-54 -39t-37.5 -59t-14 -73t14 -73t37.5 -59t54 -39t64.5 -14q35 0 63 12.5t48 27.5q23 18 39 40l50 -45q-21 -26 -49 -47q-24 -18 -58 -33.5t-77 -18.5
l-21 -46h5q38 0 59 -20t21 -52t-25 -55t-70 -23z" />
    <glyph glyph-name="egrave" unicode="&#xe8;" horiz-adv-x="555" 
d="M285 -10q-49 0 -92.5 19.5t-76.5 53t-52 79t-19 98.5q0 52 19 98t51.5 79.5t75 53t89.5 19.5q49 0 91 -18t73 -49.5t48.5 -76t17.5 -96.5q0 -8 -1 -14.5t-2 -11.5q-1 -6 -2 -10l-390 1q2 -32 16 -61t37 -51t53 -35t64 -13q38 0 66.5 12.5t48.5 27.5q23 18 40 40l45 -45
q-21 -28 -51 -50q-26 -19 -63 -34.5t-86 -15.5zM440 275q-4 32 -17.5 59.5t-34.5 47.5t-48.5 31.5t-59.5 11.5t-60.5 -12t-50.5 -33t-36 -48t-18 -57h325zM155 700h75l75 -135h-55z" />
    <glyph glyph-name="eacute" unicode="&#xe9;" horiz-adv-x="555" 
d="M285 -10q-49 0 -92.5 19.5t-76.5 53t-52 79t-19 98.5q0 52 19 98t51.5 79.5t75 53t89.5 19.5q49 0 91 -18t73 -49.5t48.5 -76t17.5 -96.5q0 -8 -1 -14.5t-2 -11.5q-1 -6 -2 -10l-390 1q2 -32 16 -61t37 -51t53 -35t64 -13q38 0 66.5 12.5t48.5 27.5q23 18 40 40l45 -45
q-21 -28 -51 -50q-26 -19 -63 -34.5t-86 -15.5zM440 275q-4 32 -17.5 59.5t-34.5 47.5t-48.5 31.5t-59.5 11.5t-60.5 -12t-50.5 -33t-36 -48t-18 -57h325zM330 700h75l-95 -135h-55z" />
    <glyph glyph-name="ecircumflex" unicode="&#xea;" horiz-adv-x="555" 
d="M285 -10q-49 0 -92.5 19.5t-76.5 53t-52 79t-19 98.5q0 52 19 98t51.5 79.5t75 53t89.5 19.5q49 0 91 -18t73 -49.5t48.5 -76t17.5 -96.5q0 -8 -1 -14.5t-2 -11.5q-1 -6 -2 -10l-390 1q2 -32 16 -61t37 -51t53 -35t64 -13q38 0 66.5 12.5t48.5 27.5q23 18 40 40l45 -45
q-21 -28 -51 -50q-26 -19 -63 -34.5t-86 -15.5zM440 275q-4 32 -17.5 59.5t-34.5 47.5t-48.5 31.5t-59.5 11.5t-60.5 -12t-50.5 -33t-36 -48t-18 -57h325zM245 700h70l110 -135h-65l-80 95l-80 -95h-65z" />
    <glyph glyph-name="edieresis" unicode="&#xeb;" horiz-adv-x="555" 
d="M285 -10q-49 0 -92.5 19.5t-76.5 53t-52 79t-19 98.5q0 52 19 98t51.5 79.5t75 53t89.5 19.5q49 0 91 -18t73 -49.5t48.5 -76t17.5 -96.5q0 -8 -1 -14.5t-2 -11.5q-1 -6 -2 -10l-390 1q2 -32 16 -61t37 -51t53 -35t64 -13q38 0 66.5 12.5t48.5 27.5q23 18 40 40l45 -45
q-21 -28 -51 -50q-26 -19 -63 -34.5t-86 -15.5zM440 275q-4 32 -17.5 59.5t-34.5 47.5t-48.5 31.5t-59.5 11.5t-60.5 -12t-50.5 -33t-36 -48t-18 -57h325zM185 585q-19 0 -32 13t-13 32t13 32t32 13t32 -13t13 -32t-13 -32t-32 -13zM375 585q-19 0 -32 13t-13 32t13 32
t32 13t32 -13t13 -32t-13 -32t-32 -13z" />
    <glyph glyph-name="igrave" unicode="&#xec;" horiz-adv-x="230" 
d="M80 480h70v-480h-70v480zM-10 700h75l75 -135h-55z" />
    <glyph glyph-name="iacute" unicode="&#xed;" horiz-adv-x="230" 
d="M80 480h70v-480h-70v480zM160 700h75l-95 -135h-55z" />
    <glyph glyph-name="icircumflex" unicode="&#xee;" horiz-adv-x="230" 
d="M80 480h70v-480h-70v480zM80 700h70l110 -135h-65l-80 95l-80 -95h-65z" />
    <glyph glyph-name="idieresis" unicode="&#xef;" horiz-adv-x="230" 
d="M80 480h70v-480h-70v480zM20 585q-19 0 -32 13t-13 32t13 32t32 13t32 -13t13 -32t-13 -32t-32 -13zM210 585q-19 0 -32 13t-13 32t13 32t32 13t32 -13t13 -32t-13 -32t-32 -13z" />
    <glyph glyph-name="eth" unicode="&#xf0;" horiz-adv-x="595" 
d="M285 -10q-51 0 -94.5 18.5t-76 51t-51 76t-18.5 94.5t18.5 94.5t51 76t76 51t94.5 18.5q34 0 60 -7.5t44 -15.5q21 -10 36 -22h5q-15 42 -38.5 78.5t-46.5 65.5q-26 33 -55 61l-105 -60l-35 35l105 60q-16 15 -34 29q-16 12 -36 26t-40 25l65 30q23 -15 42 -29.5
t33 -25.5q17 -13 30 -25l100 55l35 -35l-100 -55q50 -49 90 -112q17 -27 33 -60t29 -71t20.5 -81t7.5 -91q0 -55 -19 -101.5t-52 -80.5t-78 -53.5t-96 -19.5zM285 55q36 0 67 13.5t54 36.5t36 55t13 70q0 37 -13 69.5t-36 55.5t-54 36.5t-67 13.5t-67 -13.5t-54 -36.5
t-36 -55.5t-13 -69.5q0 -38 13 -70t36 -55t54 -36.5t67 -13.5z" />
    <glyph glyph-name="ntilde" unicode="&#xf1;" 
d="M80 480h70v-70q15 22 38 40q20 15 48.5 27.5t68.5 12.5q43 0 79 -14.5t61.5 -41t40 -64.5t14.5 -85v-285h-70v285q0 64 -36.5 102t-93.5 38q-32 0 -59.5 -11.5t-47.5 -32.5t-31.5 -50.5t-11.5 -65.5v-265h-70v480zM135 565q0 60 26 90t64 30q26 0 43.5 -10t31 -22.5
t26 -22.5t29.5 -10q15 0 27.5 15.5t12.5 49.5h50q0 -60 -26 -90t-64 -30q-26 0 -43.5 10t-31 22.5t-26 22.5t-29.5 10q-15 0 -27.5 -15.5t-12.5 -49.5h-50v0z" />
    <glyph glyph-name="ograve" unicode="&#xf2;" 
d="M290 -10q-51 0 -95.5 19.5t-77.5 53t-52.5 79t-19.5 98.5q0 52 19.5 98t52.5 79.5t77.5 53t95.5 19.5t95.5 -19.5t77.5 -53t52.5 -79.5t19.5 -98q0 -53 -19.5 -98.5t-52.5 -79t-77.5 -53t-95.5 -19.5zM290 55q36 0 67.5 14t55.5 39t38 59t14 73t-14 73t-38 59t-55.5 39
t-67.5 14t-67.5 -14t-55.5 -39t-38 -59t-14 -73t14 -73t38 -58.5t55.5 -39t67.5 -14.5zM165 700h75l75 -135h-55z" />
    <glyph glyph-name="oacute" unicode="&#xf3;" 
d="M290 -10q-51 0 -95.5 19.5t-77.5 53t-52.5 79t-19.5 98.5q0 52 19.5 98t52.5 79.5t77.5 53t95.5 19.5t95.5 -19.5t77.5 -53t52.5 -79.5t19.5 -98q0 -53 -19.5 -98.5t-52.5 -79t-77.5 -53t-95.5 -19.5zM290 55q36 0 67.5 14t55.5 39t38 59t14 73t-14 73t-38 59t-55.5 39
t-67.5 14t-67.5 -14t-55.5 -39t-38 -59t-14 -73t14 -73t38 -58.5t55.5 -39t67.5 -14.5zM340 700h75l-95 -135h-55z" />
    <glyph glyph-name="ocircumflex" unicode="&#xf4;" 
d="M290 -10q-51 0 -95.5 19.5t-77.5 53t-52.5 79t-19.5 98.5q0 52 19.5 98t52.5 79.5t77.5 53t95.5 19.5t95.5 -19.5t77.5 -53t52.5 -79.5t19.5 -98q0 -53 -19.5 -98.5t-52.5 -79t-77.5 -53t-95.5 -19.5zM290 55q36 0 67.5 14t55.5 39t38 59t14 73t-14 73t-38 59t-55.5 39
t-67.5 14t-67.5 -14t-55.5 -39t-38 -59t-14 -73t14 -73t38 -58.5t55.5 -39t67.5 -14.5zM255 700h70l110 -135h-65l-80 95l-80 -95h-65z" />
    <glyph glyph-name="otilde" unicode="&#xf5;" 
d="M290 -10q-51 0 -95.5 19.5t-77.5 53t-52.5 79t-19.5 98.5q0 52 19.5 98t52.5 79.5t77.5 53t95.5 19.5t95.5 -19.5t77.5 -53t52.5 -79.5t19.5 -98q0 -53 -19.5 -98.5t-52.5 -79t-77.5 -53t-95.5 -19.5zM290 55q36 0 67.5 14t55.5 39t38 59t14 73t-14 73t-38 59t-55.5 39
t-67.5 14t-67.5 -14t-55.5 -39t-38 -59t-14 -73t14 -73t38 -58.5t55.5 -39t67.5 -14.5zM135 565q0 60 26 90t64 30q26 0 43.5 -10t31 -22.5t26 -22.5t29.5 -10q15 0 27.5 15.5t12.5 49.5h50q0 -60 -26 -90t-64 -30q-26 0 -43.5 10t-31 22.5t-26 22.5t-29.5 10
q-15 0 -27.5 -15.5t-12.5 -49.5h-50v0z" />
    <glyph glyph-name="odieresis" unicode="&#xf6;" 
d="M290 -10q-51 0 -95.5 19.5t-77.5 53t-52.5 79t-19.5 98.5q0 52 19.5 98t52.5 79.5t77.5 53t95.5 19.5t95.5 -19.5t77.5 -53t52.5 -79.5t19.5 -98q0 -53 -19.5 -98.5t-52.5 -79t-77.5 -53t-95.5 -19.5zM290 55q36 0 67.5 14t55.5 39t38 59t14 73t-14 73t-38 59t-55.5 39
t-67.5 14t-67.5 -14t-55.5 -39t-38 -59t-14 -73t14 -73t38 -58.5t55.5 -39t67.5 -14.5zM195 585q-19 0 -32 13t-13 32t13 32t32 13t32 -13t13 -32t-13 -32t-32 -13zM385 585q-19 0 -32 13t-13 32t13 32t32 13t32 -13t13 -32t-13 -32t-32 -13z" />
    <glyph glyph-name="divide" unicode="&#xf7;" horiz-adv-x="510" 
d="M255 65q-23 0 -36.5 13.5t-13.5 36.5t13.5 36.5t36.5 13.5t36.5 -13.5t13.5 -36.5t-13.5 -36.5t-36.5 -13.5zM45 325h420v-65h-420v65zM255 420q-23 0 -36.5 13.5t-13.5 36.5t13.5 36.5t36.5 13.5t36.5 -13.5t13.5 -36.5t-13.5 -36.5t-36.5 -13.5z" />
    <glyph glyph-name="oslash" unicode="&#xf8;" 
d="M35 20l65 65q-16 17 -28 40q-11 20 -19 48.5t-8 66.5q0 52 19.5 98t52.5 79.5t77.5 53t95.5 19.5q34 0 60.5 -8t45.5 -17q22 -11 39 -25l65 65l45 -45l-65 -65q15 -17 27 -40q11 -20 19.5 -48.5t8.5 -66.5q0 -53 -19.5 -98.5t-52.5 -79t-77.5 -53t-95.5 -19.5
q-34 0 -60.5 7.5t-45.5 17.5q-22 11 -39 25l-65 -65zM390 390q-13 9 -28 17q-14 7 -31.5 12.5t-40.5 5.5q-36 0 -67.5 -14t-55.5 -39t-38 -59t-14 -73q0 -25 4.5 -44t10.5 -33q6 -16 15 -28zM290 55q36 0 67.5 14t55.5 39t38 59t14 73q0 24 -5 43.5t-10 33.5q-7 16 -15 28
l-245 -255q11 -10 27 -18q13 -7 31.5 -12t41.5 -5z" />
    <glyph glyph-name="ugrave" unicode="&#xf9;" horiz-adv-x="585" 
d="M275 -10q-41 0 -77 15t-62 43t-41 66.5t-15 85.5v280h70v-280q0 -32 10.5 -58.5t29 -46t43 -30t52.5 -10.5q30 0 56.5 11.5t46 32.5t31 50.5t11.5 65.5v265h70v-480h-70v65q-15 -21 -38 -38q-20 -14 -49 -25.5t-68 -11.5zM165 700h75l75 -135h-55z" />
    <glyph glyph-name="uacute" unicode="&#xfa;" horiz-adv-x="585" 
d="M275 -10q-41 0 -77 15t-62 43t-41 66.5t-15 85.5v280h70v-280q0 -32 10.5 -58.5t29 -46t43 -30t52.5 -10.5q30 0 56.5 11.5t46 32.5t31 50.5t11.5 65.5v265h70v-480h-70v65q-15 -21 -38 -38q-20 -14 -49 -25.5t-68 -11.5zM340 700h75l-95 -135h-55z" />
    <glyph glyph-name="ucircumflex" unicode="&#xfb;" horiz-adv-x="585" 
d="M275 -10q-41 0 -77 15t-62 43t-41 66.5t-15 85.5v280h70v-280q0 -32 10.5 -58.5t29 -46t43 -30t52.5 -10.5q30 0 56.5 11.5t46 32.5t31 50.5t11.5 65.5v265h70v-480h-70v65q-15 -21 -38 -38q-20 -14 -49 -25.5t-68 -11.5zM255 700h70l110 -135h-65l-80 95l-80 -95h-65z
" />
    <glyph glyph-name="udieresis" unicode="&#xfc;" horiz-adv-x="585" 
d="M275 -10q-41 0 -77 15t-62 43t-41 66.5t-15 85.5v280h70v-280q0 -32 10.5 -58.5t29 -46t43 -30t52.5 -10.5q30 0 56.5 11.5t46 32.5t31 50.5t11.5 65.5v265h70v-480h-70v65q-15 -21 -38 -38q-20 -14 -49 -25.5t-68 -11.5zM194 585q-19 0 -32 13t-13 32t13 32t32 13
t32 -13t13 -32t-13 -32t-32 -13zM384 585q-19 0 -32 13t-13 32t13 32t32 13t32 -13t13 -32t-13 -32t-32 -13z" />
    <glyph glyph-name="yacute" unicode="&#xfd;" horiz-adv-x="490" 
d="M105 -210q-25 0 -43 5q-10 2 -17 5v65q8 -3 16 -5q15 -5 34 -5q34 0 55 18.5t35 56.5l25 70l-195 480h75l155 -390l155 390h75l-220 -550q-30 -75 -64 -107.5t-86 -32.5zM295 700h75l-95 -135h-55z" />
    <glyph glyph-name="thorn" unicode="&#xfe;" horiz-adv-x="600" 
d="M85 700h70v-290q16 22 41 40q20 15 51 27.5t73 12.5q49 0 91.5 -18.5t74.5 -52t50.5 -79.5t18.5 -100t-18.5 -100t-50.5 -79.5t-74.5 -52t-91.5 -18.5q-42 0 -73 12.5t-51 27.5q-25 18 -41 40v-280h-70v910zM320 55q34 0 64 13.5t52.5 38t35.5 58.5t13 75t-13 75
t-35.5 58.5t-52.5 38t-64 13.5q-32 0 -61.5 -14t-52.5 -39t-37 -59t-14 -73t14 -73t37 -59t52.5 -39t61.5 -14z" />
    <glyph glyph-name="ydieresis" unicode="&#xff;" horiz-adv-x="490" 
d="M105 -210q-25 0 -43 5q-10 2 -17 5v65q8 -3 16 -5q15 -5 34 -5q34 0 55 18.5t35 56.5l25 70l-195 480h75l155 -390l155 390h75l-220 -550q-30 -75 -64 -107.5t-86 -32.5zM150 585q-19 0 -32 13t-13 32t13 32t32 13t32 -13t13 -32t-13 -32t-32 -13zM340 585q-19 0 -32 13
t-13 32t13 32t32 13t32 -13t13 -32t-13 -32t-32 -13z" />
    <glyph glyph-name="Amacron" unicode="&#x100;" horiz-adv-x="690" 
d="M310 700h70l290 -700h-80l-80 195h-330l-80 -195h-80zM480 265l-135 330l-135 -330h270zM200 885h290v-55h-290v55z" />
    <glyph glyph-name="amacron" unicode="&#x101;" horiz-adv-x="520" 
d="M215 -10q-38 0 -69 12t-53.5 31.5t-35 45t-12.5 51.5q0 60 36 97t104 48l185 30q0 53 -33.5 86.5t-86.5 33.5q-32 0 -57 -11t-42 -24q-20 -16 -36 -35l-45 45q20 25 47 45q23 17 56 31t77 14q41 0 76 -14t60.5 -39t39.5 -59t14 -73v-305h-70v65q-15 -21 -38 -38
q-20 -14 -49 -25.5t-68 -11.5zM215 55q34 0 62.5 11.5t49 32.5t32 50.5t11.5 65.5v30l-165 -30q-90 -17 -90 -85q0 -30 25.5 -52.5t74.5 -22.5zM120 665h290v-55h-290v55z" />
    <glyph glyph-name="Abreve" unicode="&#x102;" horiz-adv-x="690" 
d="M310 700h70l290 -700h-80l-80 195h-330l-80 -195h-80zM480 265l-135 330l-135 -330h270zM345 795q-60 0 -97.5 37.5t-37.5 97.5h55q0 -42 21 -63.5t59 -21.5t59 21.5t21 63.5h55q0 -60 -37.5 -97.5t-97.5 -37.5z" />
    <glyph glyph-name="abreve" unicode="&#x103;" horiz-adv-x="520" 
d="M215 -10q-38 0 -69 12t-53.5 31.5t-35 45t-12.5 51.5q0 60 36 97t104 48l185 30q0 53 -33.5 86.5t-86.5 33.5q-32 0 -57 -11t-42 -24q-20 -16 -36 -35l-45 45q20 25 47 45q23 17 56 31t77 14q41 0 76 -14t60.5 -39t39.5 -59t14 -73v-305h-70v65q-15 -21 -38 -38
q-20 -14 -49 -25.5t-68 -11.5zM215 55q34 0 62.5 11.5t49 32.5t32 50.5t11.5 65.5v30l-165 -30q-90 -17 -90 -85q0 -30 25.5 -52.5t74.5 -22.5zM265 565q-60 0 -97.5 37.5t-37.5 97.5h55q0 -42 21 -63.5t59 -21.5t59 21.5t21 63.5h55q0 -60 -37.5 -97.5t-97.5 -37.5z" />
    <glyph glyph-name="Aogonek" unicode="&#x104;" horiz-adv-x="690" 
d="M600 -205q-45 0 -70 25t-25 60q0 34 22.5 66.5t62.5 53.5l-80 195h-330l-80 -195h-80l290 700h70l290 -700h-10q-49 -23 -77 -51.5t-28 -58.5q0 -22 13 -33.5t32 -11.5q30 0 60 15v-50q-26 -15 -60 -15zM480 265l-135 330l-135 -330h270z" />
    <glyph glyph-name="aogonek" unicode="&#x105;" horiz-adv-x="520" 
d="M380 -205q-45 0 -70 25t-25 60q0 34 22.5 66.5t62.5 53.5v65q-15 -21 -38 -38q-20 -14 -49 -25.5t-68 -11.5q-38 0 -69 12t-53.5 31.5t-35 45t-12.5 51.5q0 60 36 97t104 48l185 30q0 53 -33.5 86.5t-86.5 33.5q-32 0 -57 -11t-42 -24q-20 -16 -36 -35l-45 45
q20 25 47 45q23 17 56 31t77 14q41 0 76 -14t60.5 -39t39.5 -59t14 -73v-305q-49 -23 -77 -51.5t-28 -58.5q0 -22 13 -33.5t32 -11.5q30 0 60 15v-50q-26 -15 -60 -15zM215 55q34 0 62.5 11.5t49 32.5t32 50.5t11.5 65.5v30l-165 -30q-90 -17 -90 -85q0 -30 25.5 -52.5
t74.5 -22.5z" />
    <glyph glyph-name="Cacute" unicode="&#x106;" horiz-adv-x="750" 
d="M420 -10q-75 0 -140.5 28t-114.5 77t-77 114.5t-28 140.5t28 140.5t77 114.5t114.5 77t140.5 28q72 0 125 -23t89 -50q41 -32 71 -72l-50 -45q-24 34 -58 60q-29 23 -73 41.5t-104 18.5t-112 -22t-90.5 -61t-60.5 -92t-22 -115t22 -115t60.5 -92t90.5 -61t112 -22
t105 18.5t75 41.5q35 26 60 60l50 -45q-31 -41 -74 -73q-37 -27 -90.5 -49.5t-125.5 -22.5zM455 930h75l-95 -135h-55z" />
    <glyph glyph-name="cacute" unicode="&#x107;" horiz-adv-x="515" 
d="M285 -10q-49 0 -92.5 19.5t-76.5 53t-52 79t-19 98.5q0 52 19 98t52 79.5t76.5 53t92.5 19.5q47 0 83 -15t61 -33q29 -21 51 -47l-50 -50q-16 22 -37 40q-18 15 -45.5 27.5t-62.5 12.5q-34 0 -64.5 -14t-54 -39t-37.5 -59t-14 -73t14 -73t37.5 -59t54 -39t64.5 -14
q35 0 63 12.5t48 27.5q23 18 39 40l50 -45q-23 -28 -53 -50q-26 -19 -63 -34.5t-84 -15.5zM330 700h75l-95 -135h-55z" />
    <glyph glyph-name="Ccircumflex" unicode="&#x108;" horiz-adv-x="750" 
d="M420 -10q-75 0 -140.5 28t-114.5 77t-77 114.5t-28 140.5t28 140.5t77 114.5t114.5 77t140.5 28q72 0 125 -23t89 -50q41 -32 71 -72l-50 -45q-24 34 -58 60q-29 23 -73 41.5t-104 18.5t-112 -22t-90.5 -61t-60.5 -92t-22 -115t22 -115t60.5 -92t90.5 -61t112 -22
t105 18.5t75 41.5q35 26 60 60l50 -45q-31 -41 -74 -73q-37 -27 -90.5 -49.5t-125.5 -22.5zM375 930h70l110 -135h-65l-80 95l-80 -95h-65z" />
    <glyph glyph-name="ccircumflex" unicode="&#x109;" horiz-adv-x="515" 
d="M285 -10q-49 0 -92.5 19.5t-76.5 53t-52 79t-19 98.5q0 52 19 98t52 79.5t76.5 53t92.5 19.5q47 0 83 -15t61 -33q29 -21 51 -47l-50 -50q-16 22 -37 40q-18 15 -45.5 27.5t-62.5 12.5q-34 0 -64.5 -14t-54 -39t-37.5 -59t-14 -73t14 -73t37.5 -59t54 -39t64.5 -14
q35 0 63 12.5t48 27.5q23 18 39 40l50 -45q-23 -28 -53 -50q-26 -19 -63 -34.5t-84 -15.5zM245 700h70l110 -135h-65l-80 95l-80 -95h-65z" />
    <glyph glyph-name="Cdotaccent" unicode="&#x10a;" horiz-adv-x="750" 
d="M420 -10q-75 0 -140.5 28t-114.5 77t-77 114.5t-28 140.5t28 140.5t77 114.5t114.5 77t140.5 28q72 0 125 -23t89 -50q41 -32 71 -72l-50 -45q-24 34 -58 60q-29 23 -73 41.5t-104 18.5t-112 -22t-90.5 -61t-60.5 -92t-22 -115t22 -115t60.5 -92t90.5 -61t112 -22
t105 18.5t75 41.5q35 26 60 60l50 -45q-31 -41 -74 -73q-37 -27 -90.5 -49.5t-125.5 -22.5zM410 810q-19 0 -32 13t-13 32t13 32t32 13t32 -13t13 -32t-13 -32t-32 -13z" />
    <glyph glyph-name="cdotaccent" unicode="&#x10b;" horiz-adv-x="515" 
d="M285 -10q-49 0 -92.5 19.5t-76.5 53t-52 79t-19 98.5q0 52 19 98t52 79.5t76.5 53t92.5 19.5q47 0 83 -15t61 -33q29 -21 51 -47l-50 -50q-16 22 -37 40q-18 15 -45.5 27.5t-62.5 12.5q-34 0 -64.5 -14t-54 -39t-37.5 -59t-14 -73t14 -73t37.5 -59t54 -39t64.5 -14
q35 0 63 12.5t48 27.5q23 18 39 40l50 -45q-23 -28 -53 -50q-26 -19 -63 -34.5t-84 -15.5zM280 585q-19 0 -32 13t-13 32t13 32t32 13t32 -13t13 -32t-13 -32t-32 -13z" />
    <glyph glyph-name="Ccaron" unicode="&#x10c;" horiz-adv-x="750" 
d="M420 -10q-75 0 -140.5 28t-114.5 77t-77 114.5t-28 140.5t28 140.5t77 114.5t114.5 77t140.5 28q72 0 125 -23t89 -50q41 -32 71 -72l-50 -45q-24 34 -58 60q-29 23 -73 41.5t-104 18.5t-112 -22t-90.5 -61t-60.5 -92t-22 -115t22 -115t60.5 -92t90.5 -61t112 -22
t105 18.5t75 41.5q35 26 60 60l50 -45q-31 -41 -74 -73q-37 -27 -90.5 -49.5t-125.5 -22.5zM265 930h65l80 -95l80 95h65l-110 -135h-70z" />
    <glyph glyph-name="ccaron" unicode="&#x10d;" horiz-adv-x="515" 
d="M285 -10q-49 0 -92.5 19.5t-76.5 53t-52 79t-19 98.5q0 52 19 98t52 79.5t76.5 53t92.5 19.5q47 0 83 -15t61 -33q29 -21 51 -47l-50 -50q-16 22 -37 40q-18 15 -45.5 27.5t-62.5 12.5q-34 0 -64.5 -14t-54 -39t-37.5 -59t-14 -73t14 -73t37.5 -59t54 -39t64.5 -14
q35 0 63 12.5t48 27.5q23 18 39 40l50 -45q-23 -28 -53 -50q-26 -19 -63 -34.5t-84 -15.5zM135 700h65l80 -95l80 95h65l-110 -135h-70z" />
    <glyph glyph-name="Dcaron" unicode="&#x10e;" horiz-adv-x="750" 
d="M105 700h220q77 0 143.5 -28t116 -76t77.5 -111.5t28 -134.5t-28 -134.5t-77.5 -111.5t-116 -76t-143.5 -28h-220v700zM325 70q62 0 115 22t92 60t61 89t22 109t-22 109t-61 89t-92 60t-115 22h-145v-560h145zM225 930h65l80 -95l80 95h65l-110 -135h-70z" />
    <glyph glyph-name="dcaron" unicode="&#x10f;" horiz-adv-x="640" 
d="M280 -10q-49 0 -91.5 18.5t-74.5 52t-50.5 79.5t-18.5 100t18.5 100t50.5 79.5t74.5 52t91.5 18.5q42 0 72.5 -12.5t51.5 -27.5q24 -18 41 -40v290h70v-700h-70v70q-17 -22 -41 -40q-21 -15 -51.5 -27.5t-72.5 -12.5zM280 55q32 0 61.5 14t52.5 39t37 59t14 73t-14 73
t-37 59t-52.5 39t-61.5 14q-34 0 -64 -13.5t-52.5 -38t-35.5 -58.5t-13 -75t13 -75t35.5 -58.5t52.5 -38t64 -13.5zM625 700h65l-60 -135h-50z" />
    <glyph glyph-name="Dcroat" unicode="&#x110;" horiz-adv-x="765" 
d="M120 315h-95v70h95v315h220q77 0 143.5 -28t116 -76t77.5 -111.5t28 -134.5t-28 -134.5t-77.5 -111.5t-116 -76t-143.5 -28h-220v315zM340 70q62 0 115 22t92 60t61 89t22 109t-22 109t-61 89t-92 60t-115 22h-145v-245h170v-70h-170v-245h145z" />
    <glyph glyph-name="dcroat" unicode="&#x111;" horiz-adv-x="600" 
d="M275 -10q-47 0 -88.5 18.5t-73 51t-50 76t-18.5 94.5t18.5 94.5t50 76t73 51t88.5 18.5q43 0 74.5 -12.5t51.5 -27.5q24 -18 39 -40v155h-130v65h130v90h70v-90h80v-65h-80v-545h-70v70q-15 -22 -39 -40q-20 -15 -51.5 -27.5t-74.5 -12.5zM275 55q34 0 64 13.5t52.5 36.5
t35.5 55t13 70q0 37 -13 69.5t-35.5 55.5t-52.5 36.5t-64 13.5q-32 0 -61 -13.5t-51 -36.5t-35 -55.5t-13 -69.5q0 -38 13 -70t35 -55t51 -36.5t61 -13.5z" />
    <glyph glyph-name="Emacron" unicode="&#x112;" horiz-adv-x="640" 
d="M105 700h480v-70h-405v-230h325v-70h-325v-260h415v-70h-490v700zM205 885h290v-55h-290v55z" />
    <glyph glyph-name="emacron" unicode="&#x113;" horiz-adv-x="555" 
d="M285 -10q-49 0 -92.5 19.5t-76.5 53t-52 79t-19 98.5q0 52 19 98t51.5 79.5t75 53t89.5 19.5q49 0 91 -18t73 -49.5t48.5 -76t17.5 -96.5q0 -8 -1 -14.5t-2 -11.5q-1 -6 -2 -10l-390 1q2 -32 16 -61t37 -51t53 -35t64 -13q38 0 66.5 12.5t48.5 27.5q23 18 40 40l45 -45
q-21 -28 -51 -50q-26 -19 -63 -34.5t-86 -15.5zM440 275q-4 32 -17.5 59.5t-34.5 47.5t-48.5 31.5t-59.5 11.5t-60.5 -12t-50.5 -33t-36 -48t-18 -57h325zM135 665h290v-55h-290v55z" />
    <glyph glyph-name="Ebreve" unicode="&#x114;" horiz-adv-x="640" 
d="M105 700h480v-70h-405v-230h325v-70h-325v-260h415v-70h-490v700zM345 795q-60 0 -97.5 37.5t-37.5 97.5h55q0 -42 21 -63.5t59 -21.5t59 21.5t21 63.5h55q0 -60 -37.5 -97.5t-97.5 -37.5z" />
    <glyph glyph-name="ebreve" unicode="&#x115;" horiz-adv-x="555" 
d="M285 -10q-49 0 -92.5 19.5t-76.5 53t-52 79t-19 98.5q0 52 19 98t51.5 79.5t75 53t89.5 19.5q49 0 91 -18t73 -49.5t48.5 -76t17.5 -96.5q0 -8 -1 -14.5t-2 -11.5q-1 -6 -2 -10l-390 1q2 -32 16 -61t37 -51t53 -35t64 -13q38 0 66.5 12.5t48.5 27.5q23 18 40 40l45 -45
q-21 -28 -51 -50q-26 -19 -63 -34.5t-86 -15.5zM440 275q-4 32 -17.5 59.5t-34.5 47.5t-48.5 31.5t-59.5 11.5t-60.5 -12t-50.5 -33t-36 -48t-18 -57h325zM280 565q-60 0 -97.5 37.5t-37.5 97.5h55q0 -42 21 -63.5t59 -21.5t59 21.5t21 63.5h55q0 -60 -37.5 -97.5
t-97.5 -37.5z" />
    <glyph glyph-name="Edotaccent" unicode="&#x116;" horiz-adv-x="640" 
d="M105 700h480v-70h-405v-230h325v-70h-325v-260h415v-70h-490v700zM350 810q-19 0 -32 13t-13 32t13 32t32 13t32 -13t13 -32t-13 -32t-32 -13z" />
    <glyph glyph-name="edotaccent" unicode="&#x117;" horiz-adv-x="555" 
d="M285 -10q-49 0 -92.5 19.5t-76.5 53t-52 79t-19 98.5q0 52 19 98t51.5 79.5t75 53t89.5 19.5q49 0 91 -18t73 -49.5t48.5 -76t17.5 -96.5q0 -8 -1 -14.5t-2 -11.5q-1 -6 -2 -10l-390 1q2 -32 16 -61t37 -51t53 -35t64 -13q38 0 66.5 12.5t48.5 27.5q23 18 40 40l45 -45
q-21 -28 -51 -50q-26 -19 -63 -34.5t-86 -15.5zM440 275q-4 32 -17.5 59.5t-34.5 47.5t-48.5 31.5t-59.5 11.5t-60.5 -12t-50.5 -33t-36 -48t-18 -57h325zM280 585q-19 0 -32 13t-13 32t13 32t32 13t32 -13t13 -32t-13 -32t-32 -13z" />
    <glyph glyph-name="Eogonek" unicode="&#x118;" horiz-adv-x="640" 
d="M535 -205q-45 0 -70 25t-25 60q0 34 22.5 66.5t62.5 53.5h-420v700h480v-70h-405v-230h325v-70h-325v-260h415v-70q-49 -23 -77 -51.5t-28 -58.5q0 -22 13 -33.5t32 -11.5q30 0 60 15v-50q-26 -15 -60 -15z" />
    <glyph glyph-name="eogonek" unicode="&#x119;" horiz-adv-x="555" 
d="M369 -205q-45 0 -70 25t-25 60q0 30 13.5 59.5t41.5 54.5q-19 -4 -44 -4q-49 0 -92.5 19.5t-76.5 53t-52 79t-19 98.5q0 52 19 98t51.5 79.5t75 53t89.5 19.5q49 0 91 -18t73 -49.5t48.5 -76t17.5 -96.5q0 -15 -2.5 -25.5t-2.5 -9.5h-390q2 -32 16 -61t37 -51t53 -35
t64 -13q38 0 66.5 12.5t48.5 27.5q23 18 40 40l45 -45q-12 -15 -28 -30t-40 -33q-51 -38 -72 -70.5t-21 -61.5q0 -26 13 -38t32 -12q30 0 60 15v-50q-26 -15 -60 -15zM440 275q-4 32 -17.5 59.5t-34.5 47.5t-48.5 31.5t-59.5 11.5t-60.5 -12t-50.5 -33t-36 -48t-18 -57h325z
" />
    <glyph glyph-name="Ecaron" unicode="&#x11a;" horiz-adv-x="640" 
d="M105 700h480v-70h-405v-230h325v-70h-325v-260h415v-70h-490v700zM210 930h65l80 -95l80 95h65l-110 -135h-70z" />
    <glyph glyph-name="ecaron" unicode="&#x11b;" horiz-adv-x="555" 
d="M285 -10q-49 0 -92.5 19.5t-76.5 53t-52 79t-19 98.5q0 52 19 98t51.5 79.5t75 53t89.5 19.5q49 0 91 -18t73 -49.5t48.5 -76t17.5 -96.5q0 -8 -1 -14.5t-2 -11.5q-1 -6 -2 -10l-390 1q2 -32 16 -61t37 -51t53 -35t64 -13q38 0 66.5 12.5t48.5 27.5q23 18 40 40l45 -45
q-21 -28 -51 -50q-26 -19 -63 -34.5t-86 -15.5zM440 275q-4 32 -17.5 59.5t-34.5 47.5t-48.5 31.5t-59.5 11.5t-60.5 -12t-50.5 -33t-36 -48t-18 -57h325zM135 700h65l80 -95l80 95h65l-110 -135h-70z" />
    <glyph glyph-name="Gcircumflex" unicode="&#x11c;" horiz-adv-x="795" 
d="M420 -10q-75 0 -140.5 28t-114.5 77t-77 114.5t-28 140.5t28 140.5t77 114.5t114.5 77t140.5 28q72 0 125 -23t89 -50q41 -32 71 -72l-50 -45q-24 34 -58 60q-29 23 -73 41.5t-104 18.5t-112 -22t-90.5 -61t-60.5 -92t-22 -115t22 -115t60.5 -92t90.5 -61t112 -22
q57 0 98 14.5t68 32.5q32 21 54 48v135h-160v70h235v-225q-32 -41 -76 -73q-38 -27 -92.5 -49.5t-126.5 -22.5zM375 930h70l110 -135h-65l-80 95l-80 -95h-65z" />
    <glyph glyph-name="gcircumflex" unicode="&#x11d;" 
d="M265 -210q-51 0 -88.5 15.5t-62.5 34.5q-29 22 -49 50l45 45q17 -22 40 -40q20 -15 48.5 -27.5t66.5 -12.5q34 0 64 13.5t52.5 36.5t35.5 55t13 70v55q-14 -21 -37 -38q-20 -14 -50 -25.5t-73 -11.5q-47 0 -88 18.5t-71.5 51t-48 76t-17.5 94.5t17.5 94.5t48 76t71.5 51
t88 18.5q43 0 73 -12t50 -26q23 -17 37 -37v65h70v-450q0 -51 -18.5 -94.5t-50.5 -76t-74.5 -51t-91.5 -18.5zM270 75q34 0 63 13.5t50.5 36.5t34 55t12.5 70q0 37 -12.5 69.5t-34 55.5t-50.5 36.5t-63 13.5q-32 0 -60 -13.5t-49 -36.5t-33.5 -55.5t-12.5 -69.5
q0 -38 12.5 -70t33.5 -55t49 -36.5t60 -13.5zM250 700h70l110 -135h-65l-80 95l-80 -95h-65z" />
    <glyph glyph-name="Gbreve" unicode="&#x11e;" horiz-adv-x="795" 
d="M420 -10q-75 0 -140.5 28t-114.5 77t-77 114.5t-28 140.5t28 140.5t77 114.5t114.5 77t140.5 28q72 0 125 -23t89 -50q41 -32 71 -72l-50 -45q-24 34 -58 60q-29 23 -73 41.5t-104 18.5t-112 -22t-90.5 -61t-60.5 -92t-22 -115t22 -115t60.5 -92t90.5 -61t112 -22
q57 0 98 14.5t68 32.5q32 21 54 48v135h-160v70h235v-225q-32 -41 -76 -73q-38 -27 -92.5 -49.5t-126.5 -22.5zM410 795q-60 0 -97.5 37.5t-37.5 97.5h55q0 -42 21 -63.5t59 -21.5t59 21.5t21 63.5h55q0 -60 -37.5 -97.5t-97.5 -37.5z" />
    <glyph glyph-name="gbreve" unicode="&#x11f;" 
d="M265 -210q-51 0 -88.5 15.5t-62.5 34.5q-29 22 -49 50l45 45q17 -22 40 -40q20 -15 48.5 -27.5t66.5 -12.5q34 0 64 13.5t52.5 36.5t35.5 55t13 70v55q-14 -21 -37 -38q-20 -14 -50 -25.5t-73 -11.5q-47 0 -88 18.5t-71.5 51t-48 76t-17.5 94.5t17.5 94.5t48 76t71.5 51
t88 18.5q43 0 73 -12t50 -26q23 -17 37 -37v65h70v-450q0 -51 -18.5 -94.5t-50.5 -76t-74.5 -51t-91.5 -18.5zM270 75q34 0 63 13.5t50.5 36.5t34 55t12.5 70q0 37 -12.5 69.5t-34 55.5t-50.5 36.5t-63 13.5q-32 0 -60 -13.5t-49 -36.5t-33.5 -55.5t-12.5 -69.5
q0 -38 12.5 -70t33.5 -55t49 -36.5t60 -13.5zM285 565q-60 0 -97.5 37.5t-37.5 97.5h55q0 -42 21 -63.5t59 -21.5t59 21.5t21 63.5h55q0 -60 -37.5 -97.5t-97.5 -37.5z" />
    <glyph glyph-name="Gdotaccent" unicode="&#x120;" horiz-adv-x="795" 
d="M420 -10q-75 0 -140.5 28t-114.5 77t-77 114.5t-28 140.5t28 140.5t77 114.5t114.5 77t140.5 28q72 0 125 -23t89 -50q41 -32 71 -72l-50 -45q-24 34 -58 60q-29 23 -73 41.5t-104 18.5t-112 -22t-90.5 -61t-60.5 -92t-22 -115t22 -115t60.5 -92t90.5 -61t112 -22
q57 0 98 14.5t68 32.5q32 21 54 48v135h-160v70h235v-225q-32 -41 -76 -73q-38 -27 -92.5 -49.5t-126.5 -22.5zM410 810q-19 0 -32 13t-13 32t13 32t32 13t32 -13t13 -32t-13 -32t-32 -13z" />
    <glyph glyph-name="gdotaccent" unicode="&#x121;" 
d="M265 -210q-51 0 -88.5 15.5t-62.5 34.5q-29 22 -49 50l45 45q17 -22 40 -40q20 -15 48.5 -27.5t66.5 -12.5q34 0 64 13.5t52.5 36.5t35.5 55t13 70v55q-14 -21 -37 -38q-20 -14 -50 -25.5t-73 -11.5q-47 0 -88 18.5t-71.5 51t-48 76t-17.5 94.5t17.5 94.5t48 76t71.5 51
t88 18.5q43 0 73 -12t50 -26q23 -17 37 -37v65h70v-450q0 -51 -18.5 -94.5t-50.5 -76t-74.5 -51t-91.5 -18.5zM270 75q34 0 63 13.5t50.5 36.5t34 55t12.5 70q0 37 -12.5 69.5t-34 55.5t-50.5 36.5t-63 13.5q-32 0 -60 -13.5t-49 -36.5t-33.5 -55.5t-12.5 -69.5
q0 -38 12.5 -70t33.5 -55t49 -36.5t60 -13.5zM285 585q-19 0 -32 13t-13 32t13 32t32 13t32 -13t13 -32t-13 -32t-32 -13z" />
    <glyph glyph-name="Gcommaaccent" unicode="&#x122;" horiz-adv-x="795" 
d="M420 -10q-75 0 -140.5 28t-114.5 77t-77 114.5t-28 140.5t28 140.5t77 114.5t114.5 77t140.5 28q72 0 125 -23t89 -50q41 -32 71 -72l-50 -45q-24 34 -58 60q-29 23 -73 41.5t-104 18.5t-112 -22t-90.5 -61t-60.5 -92t-22 -115t22 -115t60.5 -92t90.5 -61t112 -22
q57 0 98 14.5t68 32.5q32 21 54 48v135h-160v70h235v-225q-32 -41 -76 -73q-38 -27 -92.5 -49.5t-126.5 -22.5zM385 -80h65l-60 -135h-50z" />
    <glyph glyph-name="gcommaaccent" unicode="&#x123;" 
d="M305 700h50l-45 -135h-65zM265 -210q-51 0 -88.5 15.5t-62.5 34.5q-29 22 -49 50l45 45q17 -22 40 -40q20 -15 48.5 -27.5t66.5 -12.5q34 0 64 13.5t52.5 36.5t35.5 55t13 70v55q-14 -21 -37 -38q-20 -14 -50 -25.5t-73 -11.5q-47 0 -88 18.5t-71.5 51t-48 76t-17.5 94.5
t17.5 94.5t48 76t71.5 51t88 18.5q43 0 73 -12t50 -26q23 -17 37 -37v65h70v-450q0 -51 -18.5 -94.5t-50.5 -76t-74.5 -51t-91.5 -18.5zM270 75q34 0 63 13.5t50.5 36.5t34 55t12.5 70q0 37 -12.5 69.5t-34 55.5t-50.5 36.5t-63 13.5q-32 0 -60 -13.5t-49 -36.5t-33.5 -55.5
t-12.5 -69.5q0 -38 12.5 -70t33.5 -55t49 -36.5t60 -13.5z" />
    <glyph glyph-name="Hcircumflex" unicode="&#x124;" horiz-adv-x="750" 
d="M105 700h75v-310h390v310h75v-700h-75v320h-390v-320h-75v700zM340 930h70l110 -135h-65l-80 95l-80 -95h-65z" />
    <glyph glyph-name="hcircumflex" unicode="&#x125;" horiz-adv-x="585" 
d="M85 700h70v-290q15 22 38 40q20 15 48.5 27.5t68.5 12.5q43 0 79 -14.5t61.5 -41t40 -64.5t14.5 -85v-285h-70v285q0 64 -36.5 102t-93.5 38q-32 0 -59.5 -11.5t-47.5 -32.5t-31.5 -50.5t-11.5 -65.5v-265h-70v700zM260 930h70l110 -135h-65l-80 95l-80 -95h-65z" />
    <glyph glyph-name="Hbar" unicode="&#x126;" horiz-adv-x="760" 
d="M120 490h-100v70h100v140h75v-140h370v140h75v-140h100v-70h-100v-490h-75v290h-370v-290h-75v490zM565 360v130h-370v-130h370z" />
    <glyph glyph-name="hbar" unicode="&#x127;" horiz-adv-x="595" 
d="M95 545h-85v65h85v90h70v-90h140v-65h-140v-165q15 22 38 40q20 15 48.5 27.5t68.5 12.5q43 0 79 -14.5t61.5 -41t40 -64.5t14.5 -85v-255h-70v255q0 64 -36.5 102t-93.5 38q-32 0 -59.5 -11.5t-47.5 -32.5t-31.5 -50.5t-11.5 -65.5v-235h-70v545z" />
    <glyph glyph-name="uni0128" unicode="&#x128;" horiz-adv-x="285" 
d="M105 700h75v-700h-75v700zM-10 795q0 60 26 90t64 30q26 0 43.5 -10t31 -22.5t26 -22.5t29.5 -10q15 0 27.5 15.5t12.5 49.5h50q0 -60 -26 -90t-64 -30q-26 0 -43.5 10t-31 22.5t-26 22.5t-29.5 10q-15 0 -27.5 -15.5t-12.5 -49.5h-50v0z" />
    <glyph glyph-name="uni0129" unicode="&#x129;" horiz-adv-x="230" 
d="M80 480h70v-480h-70v480zM-40 565q0 60 26 90t64 30q26 0 43.5 -10t31 -22.5t26 -22.5t29.5 -10q15 0 27.5 15.5t12.5 49.5h50q0 -60 -26 -90t-64 -30q-26 0 -43.5 10t-31 22.5t-26 22.5t-29.5 10q-15 0 -27.5 -15.5t-12.5 -49.5h-50v0z" />
    <glyph glyph-name="Imacron" unicode="&#x12a;" horiz-adv-x="285" 
d="M105 700h75v-700h-75v700zM0 885h290v-55h-290v55z" />
    <glyph glyph-name="imacron" unicode="&#x12b;" horiz-adv-x="230" 
d="M80 480h70v-480h-70v480zM-30 665h290v-55h-290v55z" />
    <glyph glyph-name="Ibreve" unicode="&#x12c;" horiz-adv-x="285" 
d="M105 700h75v-700h-75v700zM145 795q-60 0 -97.5 37.5t-37.5 97.5h55q0 -42 21 -63.5t59 -21.5t59 21.5t21 63.5h55q0 -60 -37.5 -97.5t-97.5 -37.5z" />
    <glyph glyph-name="ibreve" unicode="&#x12d;" horiz-adv-x="230" 
d="M80 480h70v-480h-70v480zM115 565q-60 0 -97.5 37.5t-37.5 97.5h55q0 -42 21 -63.5t59 -21.5t59 21.5t21 63.5h55q0 -60 -37.5 -97.5t-97.5 -37.5z" />
    <glyph glyph-name="Iogonek" unicode="&#x12e;" horiz-adv-x="285" 
d="M120 -205q-45 0 -70 25t-25 60q0 34 22.5 66.5t62.5 53.5h-5v700h75v-700q-49 -23 -77 -51.5t-28 -58.5q0 -22 13 -33.5t32 -11.5q30 0 60 15v-50q-26 -15 -60 -15z" />
    <glyph glyph-name="iogonek" unicode="&#x12f;" horiz-adv-x="230" 
d="M90 -205q-45 0 -70 25t-25 60q0 34 22.5 66.5t62.5 53.5v480h70v-480q-49 -23 -77 -51.5t-28 -58.5q0 -22 13 -33.5t32 -11.5q30 0 60 15v-50q-26 -15 -60 -15zM115 595q-19 0 -32 13t-13 32t13 32t32 13t32 -13t13 -32t-13 -32t-32 -13z" />
    <glyph glyph-name="Idotaccent" unicode="&#x130;" horiz-adv-x="285" 
d="M105 700h75v-700h-75v700zM145 810q-19 0 -32 13t-13 32t13 32t32 13t32 -13t13 -32t-13 -32t-32 -13z" />
    <glyph glyph-name="dotlessi" unicode="&#x131;" horiz-adv-x="230" 
d="M80 480h70v-480h-70v480z" />
    <glyph glyph-name="uni0132" unicode="&#x132;" horiz-adv-x="705" 
d="M105 700h75v-700h-75v700zM410 -10q-42 0 -73 10.5t-51 24.5q-25 15 -41 35l50 50q12 -14 29 -25q14 -10 35.5 -17.5t50.5 -7.5q57 0 88.5 35t31.5 110v495h75v-495q0 -51 -14.5 -90.5t-40 -67.5t-61.5 -42.5t-79 -14.5z" />
    <glyph glyph-name="uni0133" unicode="&#x133;" horiz-adv-x="455" 
d="M80 480h70v-480h-70v480zM245 -210q-14 0 -24.5 2t-18.5 5q-10 4 -17 8v65q7 -4 16 -8q17 -7 39 -7q30 0 47.5 18.5t17.5 56.5v550h70v-550q0 -140 -130 -140zM115 595q-19 0 -32 13t-13 32t13 32t32 13t32 -13t13 -32t-13 -32t-32 -13zM340 595q-19 0 -32 13t-13 32
t13 32t32 13t32 -13t13 -32t-13 -32t-32 -13z" />
    <glyph glyph-name="Jcircumflex" unicode="&#x134;" horiz-adv-x="495" 
d="M180 -10q-42 0 -73 12.5t-53 27.5q-26 18 -44 40l50 50q12 -17 30 -30q15 -11 37.5 -20.5t52.5 -9.5q64 0 102 38.5t38 106.5v495h75v-495q0 -47 -16 -86.5t-44.5 -68t-68 -44.5t-86.5 -16zM320 930h70l110 -135h-65l-80 95l-80 -95h-65z" />
    <glyph glyph-name="jcircumflex" unicode="&#x135;" horiz-adv-x="230" 
d="M20 -210q-14 0 -24.5 2t-18.5 5q-10 4 -17 8v65q7 -4 16 -8q17 -7 39 -7q30 0 47.5 18.5t17.5 56.5v550h70v-550q0 -140 -130 -140zM80 700h70l110 -135h-65l-80 95l-80 -95h-65z" />
    <glyph glyph-name="Kcommaaccent" unicode="&#x136;" horiz-adv-x="670" 
d="M105 700h75v-395l360 395h95l-265 -290l290 -410h-90l-250 355l-140 -150v-205h-75v700zM325 -80h65l-60 -135h-50z" />
    <glyph glyph-name="kcommaaccent" unicode="&#x137;" horiz-adv-x="510" 
d="M85 700h70v-475l240 255h85l-185 -195l205 -285h-80l-170 235l-95 -100v-135h-70v700zM250 -80h65l-60 -135h-50z" />
    <glyph glyph-name="Lacute" unicode="&#x139;" horiz-adv-x="560" 
d="M105 700h75v-630h360v-70h-435v700zM195 930h75l-95 -135h-55z" />
    <glyph glyph-name="lacute" unicode="&#x13a;" horiz-adv-x="240" 
d="M85 700h70v-700h-70v700zM170 930h75l-95 -135h-55z" />
    <glyph glyph-name="Lcommaaccent" unicode="&#x13b;" horiz-adv-x="560" 
d="M105 700h75v-630h360v-70h-435v700zM300 -80h65l-60 -135h-50z" />
    <glyph glyph-name="lcommaaccent" unicode="&#x13c;" horiz-adv-x="240" 
d="M85 700h70v-700h-70v700zM85 -80h65l-60 -135h-50z" />
    <glyph glyph-name="Lcaron" unicode="&#x13d;" horiz-adv-x="560" 
d="M105 700h75v-630h360v-70h-435v700zM310 700h65l-60 -135h-50z" />
    <glyph glyph-name="lcaron" unicode="&#x13e;" horiz-adv-x="275" 
d="M85 700h70v-700h-70v700zM260 700h65l-60 -135h-50z" />
    <glyph glyph-name="Ldot" unicode="&#x13f;" horiz-adv-x="560" 
d="M105 700h75v-630h360v-70h-435v700zM415 325q-19 0 -32 13t-13 32t13 32t32 13t32 -13t13 -32t-13 -32t-32 -13z" />
    <glyph glyph-name="ldot" unicode="&#x140;" horiz-adv-x="360" 
d="M85 700h70v-700h-70v700zM295 305q-19 0 -32 13t-13 32t13 32t32 13t32 -13t13 -32t-13 -32t-32 -13z" />
    <glyph glyph-name="Lslash" unicode="&#x141;" horiz-adv-x="615" 
d="M160 285l-120 -70l-35 60l155 85v340h75v-295l140 85l35 -60l-175 -100v-260h360v-70h-435v285z" />
    <glyph glyph-name="lslash" unicode="&#x142;" horiz-adv-x="350" 
d="M140 310l-125 -75l-30 50l155 95v320h70v-285l125 80l30 -50l-155 -100v-345h-70v310z" />
    <glyph glyph-name="Nacute" unicode="&#x143;" horiz-adv-x="780" 
d="M105 700h65l430 -565v565h75v-700h-65l-430 565v-565h-75v700zM435 930h75l-95 -135h-55z" />
    <glyph glyph-name="nacute" unicode="&#x144;" 
d="M80 480h70v-70q15 22 38 40q20 15 48.5 27.5t68.5 12.5q43 0 79 -14.5t61.5 -41t40 -64.5t14.5 -85v-285h-70v285q0 64 -36.5 102t-93.5 38q-32 0 -59.5 -11.5t-47.5 -32.5t-31.5 -50.5t-11.5 -65.5v-265h-70v480zM345 700h75l-95 -135h-55z" />
    <glyph glyph-name="Ncommaaccent" unicode="&#x145;" horiz-adv-x="780" 
d="M105 700h65l430 -565v565h75v-700h-65l-430 565v-565h-75v700zM375 -80h65l-60 -135h-50z" />
    <glyph glyph-name="ncommaaccent" unicode="&#x146;" 
d="M80 480h70v-70q15 22 38 40q20 15 48.5 27.5t68.5 12.5q43 0 79 -14.5t61.5 -41t40 -64.5t14.5 -85v-285h-70v285q0 64 -36.5 102t-93.5 38q-32 0 -59.5 -11.5t-47.5 -32.5t-31.5 -50.5t-11.5 -65.5v-265h-70v480zM260 -80h65l-60 -135h-50z" />
    <glyph glyph-name="Ncaron" unicode="&#x147;" horiz-adv-x="780" 
d="M105 700h65l430 -565v565h75v-700h-65l-430 565v-565h-75v700zM245 930h65l80 -95l80 95h65l-110 -135h-70z" />
    <glyph glyph-name="ncaron" unicode="&#x148;" 
d="M80 480h70v-70q15 22 38 40q20 15 48.5 27.5t68.5 12.5q43 0 79 -14.5t61.5 -41t40 -64.5t14.5 -85v-285h-70v285q0 64 -36.5 102t-93.5 38q-32 0 -59.5 -11.5t-47.5 -32.5t-31.5 -50.5t-11.5 -65.5v-265h-70v480zM150 700h65l80 -95l80 95h65l-110 -135h-70z" />
    <glyph glyph-name="napostrophe" unicode="&#x149;" 
d="M80 480h70v-70q15 22 38 40q20 15 48.5 27.5t68.5 12.5q43 0 79 -14.5t61.5 -41t40 -64.5t14.5 -85v-285h-70v285q0 64 -36.5 102t-93.5 38q-32 0 -59.5 -11.5t-47.5 -32.5t-31.5 -50.5t-11.5 -65.5v-265h-70v480zM60 680h65l-60 -135h-50z" />
    <glyph glyph-name="Eng" unicode="&#x14a;" horiz-adv-x="780" 
d="M485 -210q-40 0 -68.5 9.5t-48.5 20.5q-23 13 -38 30l50 50q12 -11 28 -20q14 -8 33 -14t44 -6q53 0 84 34t31 106v15l-420 550v-565h-75v700h65l430 -565v565h75v-700q0 -49 -14 -88t-39.5 -66t-60.5 -41.5t-76 -14.5z" />
    <glyph glyph-name="eng" unicode="&#x14b;" 
d="M370 -210q-14 0 -24.5 2t-18.5 5q-10 4 -17 8v65q7 -4 16 -8q17 -7 39 -7q30 0 47.5 18.5t17.5 56.5v355q0 64 -36.5 102t-93.5 38q-32 0 -59.5 -11.5t-47.5 -32.5t-31.5 -50.5t-11.5 -65.5v-265h-70v480h70v-70q15 22 38 40q20 15 48.5 27.5t68.5 12.5q43 0 79 -14.5
t61.5 -41t40 -64.5t14.5 -85v-355q0 -140 -130 -140z" />
    <glyph glyph-name="Omacron" unicode="&#x14c;" horiz-adv-x="840" 
d="M420 -10q-75 0 -140.5 28t-114.5 77t-77 114.5t-28 140.5t28 140.5t77 114.5t114.5 77t140.5 28t140.5 -28t114.5 -77t77 -114.5t28 -140.5t-28 -140.5t-77 -114.5t-114.5 -77t-140.5 -28zM420 60q60 0 112 22t90.5 61t60.5 92t22 115t-22 115t-60.5 92t-90.5 61t-112 22
t-112 -22t-90.5 -61t-60.5 -92t-22 -115t22 -115t60.5 -92t90.5 -61t112 -22zM275 885h290v-55h-290v55z" />
    <glyph glyph-name="omacron" unicode="&#x14d;" 
d="M290 -10q-51 0 -95.5 19.5t-77.5 53t-52.5 79t-19.5 98.5q0 52 19.5 98t52.5 79.5t77.5 53t95.5 19.5t95.5 -19.5t77.5 -53t52.5 -79.5t19.5 -98q0 -53 -19.5 -98.5t-52.5 -79t-77.5 -53t-95.5 -19.5zM290 55q36 0 67.5 14t55.5 39t38 59t14 73t-14 73t-38 59t-55.5 39
t-67.5 14t-67.5 -14t-55.5 -39t-38 -59t-14 -73t14 -73t38 -58.5t55.5 -39t67.5 -14.5zM145 665h290v-55h-290v55z" />
    <glyph glyph-name="Obreve" unicode="&#x14e;" horiz-adv-x="840" 
d="M420 -10q-75 0 -140.5 28t-114.5 77t-77 114.5t-28 140.5t28 140.5t77 114.5t114.5 77t140.5 28t140.5 -28t114.5 -77t77 -114.5t28 -140.5t-28 -140.5t-77 -114.5t-114.5 -77t-140.5 -28zM420 60q60 0 112 22t90.5 61t60.5 92t22 115t-22 115t-60.5 92t-90.5 61t-112 22
t-112 -22t-90.5 -61t-60.5 -92t-22 -115t22 -115t60.5 -92t90.5 -61t112 -22zM420 795q-60 0 -97.5 37.5t-37.5 97.5h55q0 -42 21 -63.5t59 -21.5t59 21.5t21 63.5h55q0 -60 -37.5 -97.5t-97.5 -37.5z" />
    <glyph glyph-name="obreve" unicode="&#x14f;" 
d="M290 -10q-51 0 -95.5 19.5t-77.5 53t-52.5 79t-19.5 98.5q0 52 19.5 98t52.5 79.5t77.5 53t95.5 19.5t95.5 -19.5t77.5 -53t52.5 -79.5t19.5 -98q0 -53 -19.5 -98.5t-52.5 -79t-77.5 -53t-95.5 -19.5zM290 55q36 0 67.5 14t55.5 39t38 59t14 73t-14 73t-38 59t-55.5 39
t-67.5 14t-67.5 -14t-55.5 -39t-38 -59t-14 -73t14 -73t38 -58.5t55.5 -39t67.5 -14.5zM290 565q-60 0 -97.5 37.5t-37.5 97.5h55q0 -42 21 -63.5t59 -21.5t59 21.5t21 63.5h55q0 -60 -37.5 -97.5t-97.5 -37.5z" />
    <glyph glyph-name="Ohungarumlaut" unicode="&#x150;" horiz-adv-x="840" 
d="M420 -10q-75 0 -140.5 28t-114.5 77t-77 114.5t-28 140.5t28 140.5t77 114.5t114.5 77t140.5 28t140.5 -28t114.5 -77t77 -114.5t28 -140.5t-28 -140.5t-77 -114.5t-114.5 -77t-140.5 -28zM420 60q60 0 112 22t90.5 61t60.5 92t22 115t-22 115t-60.5 92t-90.5 61t-112 22
t-112 -22t-90.5 -61t-60.5 -92t-22 -115t22 -115t60.5 -92t90.5 -61t112 -22zM390 930h75l-96 -135h-54zM544 930h76l-95 -135h-55z" />
    <glyph glyph-name="ohungarumlaut" unicode="&#x151;" 
d="M290 -10q-51 0 -95.5 19.5t-77.5 53t-52.5 79t-19.5 98.5q0 52 19.5 98t52.5 79.5t77.5 53t95.5 19.5t95.5 -19.5t77.5 -53t52.5 -79.5t19.5 -98q0 -53 -19.5 -98.5t-52.5 -79t-77.5 -53t-95.5 -19.5zM290 55q36 0 67.5 14t55.5 39t38 59t14 73t-14 73t-38 59t-55.5 39
t-67.5 14t-67.5 -14t-55.5 -39t-38 -59t-14 -73t14 -73t38 -58.5t55.5 -39t67.5 -14.5zM255 700h75l-96 -135h-54zM409 700h76l-95 -135h-55z" />
    <glyph glyph-name="OE" unicode="&#x152;" horiz-adv-x="1005" 
d="M415 0q-75 0 -140 27.5t-112.5 74.5t-75 111t-27.5 137t27.5 137t75 111t112.5 74.5t140 27.5h535v-70h-360v-230h280v-70h-280v-260h370v-70h-545zM515 70v560h-100q-60 0 -111.5 -21.5t-89 -59t-58.5 -88.5t-21 -111t21 -111.5t58.5 -89t89 -58.5t111.5 -21h100z" />
    <glyph glyph-name="oe" unicode="&#x153;" horiz-adv-x="940" 
d="M280 -10q-47 0 -89.5 19.5t-75 53t-51.5 79t-19 98.5q0 52 19 98t51.5 79.5t75 53t89.5 19.5q51 0 88.5 -20t62.5 -43q29 -27 49 -62q18 35 46 62q24 23 61 43t88 20q45 0 85 -18t70 -50t47.5 -77.5t17.5 -99.5q0 -7 -1 -13t-2 -11q-1 -6 -2 -11h-375q4 -32 18 -60
t36 -49t50.5 -33.5t60.5 -12.5q38 0 65.5 12.5t46.5 27.5q22 18 38 40l45 -45q-21 -28 -49 -50q-25 -19 -61 -34.5t-85 -15.5q-53 0 -91 19.5t-62 42.5q-29 27 -47 63q-20 -36 -49 -63q-25 -23 -62.5 -42.5t-88.5 -19.5zM280 55q32 0 61.5 14t52.5 39t37 59t14 73t-14 73
t-37 59t-52.5 39t-61.5 14t-61.5 -14t-52.5 -39t-37 -59t-14 -73t14 -73t37 -59t52.5 -39t61.5 -14zM825 275q-4 34 -16.5 61.5t-32 47t-45.5 30.5t-56 11t-57.5 -12t-49 -33t-35.5 -48t-18 -57h310z" />
    <glyph glyph-name="Racute" unicode="&#x154;" horiz-adv-x="675" 
d="M105 700h280q47 0 86.5 -16t68 -44t44.5 -66.5t16 -83.5q0 -60 -23 -98.5t-50 -61.5q-32 -26 -72 -40l165 -290h-85l-155 280h-200v-280h-75v700zM385 350q64 0 102 38t38 102t-38 102t-102 38h-205v-280h205zM385 930h75l-95 -135h-55z" />
    <glyph glyph-name="racute" unicode="&#x155;" horiz-adv-x="345" 
d="M80 480h70v-65q16 20 39 37q20 14 49.5 26t71.5 12h20v-70h-30q-30 0 -57 -11t-48 -31t-33 -48.5t-12 -64.5v-265h-70v480zM250 700h75l-95 -135h-55z" />
    <glyph glyph-name="Rcommaaccent" unicode="&#x156;" horiz-adv-x="675" 
d="M105 700h280q47 0 86.5 -16t68 -44t44.5 -66.5t16 -83.5q0 -60 -23 -98.5t-50 -61.5q-32 -26 -72 -40l165 -290h-85l-155 280h-200v-280h-75v700zM385 350q64 0 102 38t38 102t-38 102t-102 38h-205v-280h205zM320 -80h65l-60 -135h-50z" />
    <glyph glyph-name="rcommaaccent" unicode="&#x157;" horiz-adv-x="345" 
d="M80 480h70v-65q16 20 39 37q20 14 49.5 26t71.5 12h20v-70h-30q-30 0 -57 -11t-48 -31t-33 -48.5t-12 -64.5v-265h-70v480zM85 -80h65l-60 -135h-50z" />
    <glyph glyph-name="Rcaron" unicode="&#x158;" horiz-adv-x="675" 
d="M105 700h280q47 0 86.5 -16t68 -44t44.5 -66.5t16 -83.5q0 -60 -23 -98.5t-50 -61.5q-32 -26 -72 -40l165 -290h-85l-155 280h-200v-280h-75v700zM385 350q64 0 102 38t38 102t-38 102t-102 38h-205v-280h205zM200 930h65l80 -95l80 95h65l-110 -135h-70z" />
    <glyph glyph-name="rcaron" unicode="&#x159;" horiz-adv-x="345" 
d="M80 480h70v-65q16 20 39 37q20 14 49.5 26t71.5 12h20v-70h-30q-30 0 -57 -11t-48 -31t-33 -48.5t-12 -64.5v-265h-70v480zM60 700h65l80 -95l80 95h65l-110 -135h-70z" />
    <glyph glyph-name="Sacute" unicode="&#x15a;" horiz-adv-x="565" 
d="M280 -10q-60 0 -104.5 16t-73.5 36q-34 23 -57 53l45 51q19 -25 46 -43q23 -17 59 -30t85 -13q79 0 119.5 36.5t40.5 93.5q0 34 -16.5 55.5t-43 36.5t-60.5 25.5t-70 21.5t-70 24.5t-60.5 35t-43 53t-16.5 78.5q0 38 15.5 72.5t45 60.5t71 41.5t93.5 15.5q51 0 89 -14
t64 -31q30 -20 52 -45l-50 -50q-16 19 -39 35q-20 13 -48.5 24t-67.5 11q-36 0 -64 -10t-47 -26.5t-29 -38t-10 -45.5q0 -45 28 -69.5t70.5 -40.5t91.5 -29t91.5 -34.5t70.5 -58t28 -98.5q0 -43 -15.5 -79.5t-45.5 -63.5t-74 -42t-100 -15zM325 930h75l-95 -135h-55z" />
    <glyph glyph-name="sacute" unicode="&#x15b;" horiz-adv-x="430" 
d="M210 -10q-45 0 -78 13t-55 29q-26 18 -42 43l50 50q14 -20 32 -35q16 -14 39.5 -24.5t53.5 -10.5q53 0 79 23t26 57q0 27 -19.5 43t-48 26.5t-62.5 20t-62.5 24.5t-48 40t-19.5 66q0 26 11.5 50.5t32.5 43t50.5 30t65.5 11.5q38 0 66.5 -10.5t48.5 -22.5q23 -14 40 -32
l-50 -50q-11 14 -26 25q-14 9 -33.5 17t-45.5 8q-41 0 -65.5 -22t-24.5 -48t19.5 -41t48 -25t62.5 -19.5t62.5 -25t48 -41.5t19.5 -68q0 -30 -12 -56.5t-34.5 -46t-55 -31t-73.5 -11.5zM260 700h75l-95 -135h-55z" />
    <glyph glyph-name="Scircumflex" unicode="&#x15c;" horiz-adv-x="565" 
d="M280 -10q-60 0 -104.5 16t-73.5 36q-34 23 -57 53l45 51q19 -25 46 -43q23 -17 59 -30t85 -13q79 0 119.5 36.5t40.5 93.5q0 34 -16.5 55.5t-43 36.5t-60.5 25.5t-70 21.5t-70 24.5t-60.5 35t-43 53t-16.5 78.5q0 38 15.5 72.5t45 60.5t71 41.5t93.5 15.5q51 0 89 -14
t64 -31q30 -20 52 -45l-50 -50q-16 19 -39 35q-20 13 -48.5 24t-67.5 11q-36 0 -64 -10t-47 -26.5t-29 -38t-10 -45.5q0 -45 28 -69.5t70.5 -40.5t91.5 -29t91.5 -34.5t70.5 -58t28 -98.5q0 -43 -15.5 -79.5t-45.5 -63.5t-74 -42t-100 -15zM245 930h70l110 -135h-65l-80 95
l-80 -95h-65z" />
    <glyph glyph-name="scircumflex" unicode="&#x15d;" horiz-adv-x="430" 
d="M210 -10q-45 0 -78 13t-55 29q-26 18 -42 43l50 50q14 -20 32 -35q16 -14 39.5 -24.5t53.5 -10.5q53 0 79 23t26 57q0 27 -19.5 43t-48 26.5t-62.5 20t-62.5 24.5t-48 40t-19.5 66q0 26 11.5 50.5t32.5 43t50.5 30t65.5 11.5q38 0 66.5 -10.5t48.5 -22.5q23 -14 40 -32
l-50 -50q-11 14 -26 25q-14 9 -33.5 17t-45.5 8q-41 0 -65.5 -22t-24.5 -48t19.5 -41t48 -25t62.5 -19.5t62.5 -25t48 -41.5t19.5 -68q0 -30 -12 -56.5t-34.5 -46t-55 -31t-73.5 -11.5zM180 700h70l110 -135h-65l-80 95l-80 -95h-65z" />
    <glyph glyph-name="Scedilla" unicode="&#x15e;" horiz-adv-x="565" 
d="M270 -205q-19 0 -34.5 5t-26.5 11q-13 7 -24 16l20 33q7 -8 17 -13q8 -5 20.5 -8.5t27.5 -3.5q23 0 36.5 12.5t13.5 27.5t-10.5 25t-29.5 10q-7 0 -12.5 -1.5t-9.5 -3.5q-4 -3 -8 -5l-25 25l31 66q-54 4 -94 20.5t-66 35.5q-31 22 -51 48l45 51q19 -25 46 -43
q23 -17 59 -30t85 -13q79 0 119.5 36.5t40.5 93.5q0 34 -16.5 55.5t-43 36.5t-60.5 25.5t-70 21.5t-70 24.5t-60.5 35t-43 53t-16.5 78.5q0 38 15.5 72.5t45 60.5t71 41.5t93.5 15.5q51 0 89 -14t64 -31q30 -20 52 -45l-50 -50q-16 19 -39 35q-20 13 -48.5 24t-67.5 11
q-36 0 -64 -10t-47 -26.5t-29 -38t-10 -45.5q0 -45 28 -69.5t70.5 -40.5t91.5 -29t91.5 -34.5t70.5 -58t28 -98.5q0 -41 -14 -76.5t-41.5 -61.5t-67.5 -42t-91 -19l-21 -46h5q38 0 59 -20t21 -52t-25 -55t-70 -23z" />
    <glyph glyph-name="scedilla" unicode="&#x15f;" horiz-adv-x="430" 
d="M200 -205q-19 0 -34.5 5t-26.5 11q-13 7 -24 16l20 33q7 -8 17 -13q8 -5 20.5 -8.5t27.5 -3.5q23 0 36.5 12.5t13.5 27.5t-10.5 25t-29.5 10q-7 0 -12.5 -1.5t-9.5 -3.5q-4 -3 -8 -5l-25 25l31 66q-39 4 -67 17.5t-47 28.5q-22 18 -37 38l50 50q14 -20 32 -35
q16 -14 39.5 -24.5t53.5 -10.5q53 0 79 23t26 57q0 27 -19.5 43t-48 26.5t-62.5 20t-62.5 24.5t-48 40t-19.5 66q0 26 11.5 50.5t32.5 43t50.5 30t65.5 11.5q38 0 66.5 -10.5t48.5 -22.5q23 -14 40 -32l-50 -50q-11 14 -26 25q-14 9 -33.5 17t-45.5 8q-41 0 -65.5 -22
t-24.5 -48t19.5 -41t48 -25t62.5 -19.5t62.5 -25t48 -41.5t19.5 -68q0 -28 -10.5 -53t-30 -44t-48.5 -31.5t-65 -15.5l-21 -46h5q38 0 59 -20t21 -52t-25 -55t-70 -23z" />
    <glyph glyph-name="Scaron" unicode="&#x160;" horiz-adv-x="565" 
d="M280 -10q-60 0 -104.5 16t-73.5 36q-34 23 -57 53l45 51q19 -25 46 -43q23 -17 59 -30t85 -13q79 0 119.5 36.5t40.5 93.5q0 34 -16.5 55.5t-43 36.5t-60.5 25.5t-70 21.5t-70 24.5t-60.5 35t-43 53t-16.5 78.5q0 38 15.5 72.5t45 60.5t71 41.5t93.5 15.5q51 0 89 -14
t64 -31q30 -20 52 -45l-50 -50q-16 19 -39 35q-20 13 -48.5 24t-67.5 11q-36 0 -64 -10t-47 -26.5t-29 -38t-10 -45.5q0 -45 28 -69.5t70.5 -40.5t91.5 -29t91.5 -34.5t70.5 -58t28 -98.5q0 -43 -15.5 -79.5t-45.5 -63.5t-74 -42t-100 -15zM135 930h65l80 -95l80 95h65
l-110 -135h-70z" />
    <glyph glyph-name="scaron" unicode="&#x161;" horiz-adv-x="430" 
d="M210 -10q-45 0 -78 13t-55 29q-26 18 -42 43l50 50q14 -20 32 -35q16 -14 39.5 -24.5t53.5 -10.5q53 0 79 23t26 57q0 27 -19.5 43t-48 26.5t-62.5 20t-62.5 24.5t-48 40t-19.5 66q0 26 11.5 50.5t32.5 43t50.5 30t65.5 11.5q38 0 66.5 -10.5t48.5 -22.5q23 -14 40 -32
l-50 -50q-11 14 -26 25q-14 9 -33.5 17t-45.5 8q-41 0 -65.5 -22t-24.5 -48t19.5 -41t48 -25t62.5 -19.5t62.5 -25t48 -41.5t19.5 -68q0 -30 -12 -56.5t-34.5 -46t-55 -31t-73.5 -11.5zM70 700h65l80 -95l80 95h65l-110 -135h-70z" />
    <glyph glyph-name="uni0162" unicode="&#x162;" horiz-adv-x="555" 
d="M279 -205q-19 0 -34.5 5t-26.5 11q-13 7 -24 16l20 33q7 -8 17 -13q8 -5 20.5 -8.5t27.5 -3.5q23 0 36.5 12.5t13.5 27.5t-10.5 25t-29.5 10q-7 0 -12.5 -1.5t-9.5 -3.5q-4 -3 -8 -5l-25 25l36 75h-30v630h-220v70h515v-70h-220v-630l-26 -55h5q38 0 59 -20t21 -52
t-25 -55t-70 -23z" />
    <glyph glyph-name="uni0163" unicode="&#x163;" horiz-adv-x="360" 
d="M220 -205q-19 0 -34.5 5t-26.5 11q-13 7 -24 16l20 33q7 -8 17 -13q8 -5 20.5 -8.5t27.5 -3.5q23 0 36.5 12.5t13.5 27.5t-10.5 25t-29.5 10q-7 0 -12.5 -1.5t-9.5 -3.5q-4 -3 -8 -5l-25 25l33 70q-40 11 -64 44.5t-24 90.5v285h-90v65h55q40 0 40 50v110h65v-160h105
v-65h-105v-285q0 -38 17.5 -56.5t47.5 -18.5q13 0 25 2t21 5q11 4 19 8v-65q-9 -4 -20 -8q-10 -3 -22.5 -5t-27.5 -2l-20 -45h5q38 0 59 -20t21 -52t-25 -55t-70 -23z" />
    <glyph glyph-name="Tcaron" unicode="&#x164;" horiz-adv-x="555" 
d="M240 630h-220v70h515v-70h-220v-630h-75v630zM135 930h65l80 -95l80 95h65l-110 -135h-70z" />
    <glyph glyph-name="tcaron" unicode="&#x165;" horiz-adv-x="365" 
d="M252 -10q-62 0 -97 36t-35 104v285h-90v65h55q40 0 40 50v110h65v-160h105v-65h-105v-285q0 -38 17.5 -56.5t47.5 -18.5q13 0 25 2t21 5q11 4 19 8v-65q-9 -4 -20 -8q-9 -3 -21.5 -5t-26.5 -2zM350 700h65l-60 -135h-50z" />
    <glyph glyph-name="Tbar" unicode="&#x166;" horiz-adv-x="555" 
d="M240 370h-155v70h155v190h-220v70h515v-70h-220v-190h155v-70h-155v-370h-75v370z" />
    <glyph glyph-name="tbar" unicode="&#x167;" horiz-adv-x="370" 
d="M257 -10q-62 0 -97 36t-35 104v95h-90v65h90v125h-90v65h55q40 0 40 50v110h65v-160h105v-65h-105v-125h105v-65h-105v-95q0 -38 17.5 -56.5t47.5 -18.5q13 0 25 2t21 5q11 4 19 8v-65q-9 -4 -20 -8q-9 -3 -21.5 -5t-26.5 -2z" />
    <glyph glyph-name="uni0168" unicode="&#x168;" horiz-adv-x="760" 
d="M380 -10q-60 0 -112 22t-90.5 60.5t-60.5 90.5t-22 112v425h75v-425q0 -47 16 -86.5t44 -68t66.5 -44.5t83.5 -16t83.5 16t66.5 44.5t44 68t16 86.5v425h75v-425q0 -60 -22 -112t-60.5 -90.5t-90.5 -60.5t-112 -22zM225 795q0 60 26 90t64 30q26 0 43.5 -10t31 -22.5
t26 -22.5t29.5 -10q15 0 27.5 15.5t12.5 49.5h50q0 -60 -26 -90t-64 -30q-26 0 -43.5 10t-31 22.5t-26 22.5t-29.5 10q-15 0 -27.5 -15.5t-12.5 -49.5h-50v0z" />
    <glyph glyph-name="uni0169" unicode="&#x169;" horiz-adv-x="585" 
d="M275 -10q-41 0 -77 15t-62 43t-41 66.5t-15 85.5v280h70v-280q0 -32 10.5 -58.5t29 -46t43 -30t52.5 -10.5q30 0 56.5 11.5t46 32.5t31 50.5t11.5 65.5v265h70v-480h-70v65q-15 -21 -38 -38q-20 -14 -49 -25.5t-68 -11.5zM135 565q0 60 26 90t64 30q26 0 43.5 -10
t31 -22.5t26 -22.5t29.5 -10q15 0 27.5 15.5t12.5 49.5h50q0 -60 -26 -90t-64 -30q-26 0 -43.5 10t-31 22.5t-26 22.5t-29.5 10q-15 0 -27.5 -15.5t-12.5 -49.5h-50v0z" />
    <glyph glyph-name="Umacron" unicode="&#x16a;" horiz-adv-x="760" 
d="M380 -10q-60 0 -112 22t-90.5 60.5t-60.5 90.5t-22 112v425h75v-425q0 -47 16 -86.5t44 -68t66.5 -44.5t83.5 -16t83.5 16t66.5 44.5t44 68t16 86.5v425h75v-425q0 -60 -22 -112t-60.5 -90.5t-90.5 -60.5t-112 -22zM235 885h290v-55h-290v55z" />
    <glyph glyph-name="umacron" unicode="&#x16b;" horiz-adv-x="585" 
d="M275 -10q-41 0 -77 15t-62 43t-41 66.5t-15 85.5v280h70v-280q0 -32 10.5 -58.5t29 -46t43 -30t52.5 -10.5q30 0 56.5 11.5t46 32.5t31 50.5t11.5 65.5v265h70v-480h-70v65q-15 -21 -38 -38q-20 -14 -49 -25.5t-68 -11.5zM145 665h290v-55h-290v55z" />
    <glyph glyph-name="Ubreve" unicode="&#x16c;" horiz-adv-x="760" 
d="M380 -10q-60 0 -112 22t-90.5 60.5t-60.5 90.5t-22 112v425h75v-425q0 -47 16 -86.5t44 -68t66.5 -44.5t83.5 -16t83.5 16t66.5 44.5t44 68t16 86.5v425h75v-425q0 -60 -22 -112t-60.5 -90.5t-90.5 -60.5t-112 -22zM380 795q-60 0 -97.5 37.5t-37.5 97.5h55
q0 -42 21 -63.5t59 -21.5t59 21.5t21 63.5h55q0 -60 -37.5 -97.5t-97.5 -37.5z" />
    <glyph glyph-name="ubreve" unicode="&#x16d;" horiz-adv-x="585" 
d="M275 -10q-41 0 -77 15t-62 43t-41 66.5t-15 85.5v280h70v-280q0 -32 10.5 -58.5t29 -46t43 -30t52.5 -10.5q30 0 56.5 11.5t46 32.5t31 50.5t11.5 65.5v265h70v-480h-70v65q-15 -21 -38 -38q-20 -14 -49 -25.5t-68 -11.5zM290 565q-60 0 -97.5 37.5t-37.5 97.5h55
q0 -42 21 -63.5t59 -21.5t59 21.5t21 63.5h55q0 -60 -37.5 -97.5t-97.5 -37.5z" />
    <glyph glyph-name="Uring" unicode="&#x16e;" horiz-adv-x="760" 
d="M380 -10q-60 0 -112 22t-90.5 60.5t-60.5 90.5t-22 112v425h75v-425q0 -47 16 -86.5t44 -68t66.5 -44.5t83.5 -16t83.5 16t66.5 44.5t44 68t16 86.5v425h75v-425q0 -60 -22 -112t-60.5 -90.5t-90.5 -60.5t-112 -22zM380 770q-20 0 -37 7t-30 19t-20.5 28.5t-7.5 35.5
t7.5 35.5t20.5 28.5t30 19t37 7q19 0 36.5 -7t30.5 -19t20.5 -28.5t7.5 -35.5t-7.5 -35.5t-20.5 -28.5t-30.5 -19t-36.5 -7zM380 815q19 0 32 13t13 32t-13 32t-32 13t-32 -13t-13 -32t13 -32t32 -13z" />
    <glyph glyph-name="uring" unicode="&#x16f;" horiz-adv-x="585" 
d="M275 -10q-41 0 -77 15t-62 43t-41 66.5t-15 85.5v280h70v-280q0 -32 10.5 -58.5t29 -46t43 -30t52.5 -10.5q30 0 56.5 11.5t46 32.5t31 50.5t11.5 65.5v265h70v-480h-70v65q-15 -21 -38 -38q-20 -14 -49 -25.5t-68 -11.5zM290 550q-20 0 -37 7t-30 19t-20.5 28.5
t-7.5 35.5t7.5 35.5t20.5 28.5t30 19t37 7q19 0 36.5 -7t30.5 -19t20.5 -28.5t7.5 -35.5t-7.5 -35.5t-20.5 -28.5t-30.5 -19t-36.5 -7zM290 595q19 0 32 13t13 32t-13 32t-32 13t-32 -13t-13 -32t13 -32t32 -13z" />
    <glyph glyph-name="Uhungarumlaut" unicode="&#x170;" horiz-adv-x="760" 
d="M380 -10q-60 0 -112 22t-90.5 60.5t-60.5 90.5t-22 112v425h75v-425q0 -47 16 -86.5t44 -68t66.5 -44.5t83.5 -16t83.5 16t66.5 44.5t44 68t16 86.5v425h75v-425q0 -60 -22 -112t-60.5 -90.5t-90.5 -60.5t-112 -22zM340 930h75l-96 -135h-54zM494 930h76l-95 -135h-55z
" />
    <glyph glyph-name="uhungarumlaut" unicode="&#x171;" horiz-adv-x="585" 
d="M275 -10q-41 0 -77 15t-62 43t-41 66.5t-15 85.5v280h70v-280q0 -32 10.5 -58.5t29 -46t43 -30t52.5 -10.5q30 0 56.5 11.5t46 32.5t31 50.5t11.5 65.5v265h70v-480h-70v65q-15 -21 -38 -38q-20 -14 -49 -25.5t-68 -11.5zM255 700h75l-96 -135h-54zM409 700h76l-95 -135
h-55z" />
    <glyph glyph-name="Uogonek" unicode="&#x172;" horiz-adv-x="760" 
d="M484 -205q-45 0 -70 25t-25 60q0 26 11.5 55.5t43.5 61.5q-29 -7 -64 -7q-60 0 -112 22t-90.5 60.5t-60.5 90.5t-22 112v425h75v-425q0 -47 16 -86.5t44 -68t66.5 -44.5t83.5 -16t83.5 16t66.5 44.5t44 68t16 86.5v425h75v-425q0 -79 -34.5 -138.5t-87.5 -98.5
q-44 -32 -74 -70t-30 -73q0 -26 13 -38t32 -12q30 0 60 15v-50q-26 -15 -60 -15z" />
    <glyph glyph-name="uogonek" unicode="&#x173;" horiz-adv-x="585" 
d="M440 -205q-45 0 -70 25t-25 60q0 34 22.5 66.5t62.5 53.5v65q-15 -21 -38 -38q-20 -14 -49 -25.5t-68 -11.5q-41 0 -77 15t-62 43t-41 66.5t-15 85.5v280h70v-280q0 -32 10.5 -58.5t29 -46t43 -30t52.5 -10.5q30 0 56.5 11.5t46 32.5t31 50.5t11.5 65.5v265h70v-480
q-49 -23 -77 -51.5t-28 -58.5q0 -22 13 -33.5t32 -11.5q30 0 60 15v-50q-26 -15 -60 -15z" />
    <glyph glyph-name="Wcircumflex" unicode="&#x174;" horiz-adv-x="1040" 
d="M30 700h80l185 -585l190 585h70l190 -585l185 585h80l-230 -700h-75l-185 585l-185 -585h-75zM485 930h70l110 -135h-65l-80 95l-80 -95h-65z" />
    <glyph glyph-name="wcircumflex" unicode="&#x175;" horiz-adv-x="730" 
d="M15 480h75l125 -370l120 370h60l120 -370l125 370h75l-165 -480h-65l-120 365l-120 -365h-65zM330 700h70l110 -135h-65l-80 95l-80 -95h-65z" />
    <glyph glyph-name="Ycircumflex" unicode="&#x176;" horiz-adv-x="635" 
d="M280 245l-260 455h85l210 -375h5l210 375h85l-260 -455v-245h-75v245zM285 930h70l110 -135h-65l-80 95l-80 -95h-65z" />
    <glyph glyph-name="ycircumflex" unicode="&#x177;" horiz-adv-x="490" 
d="M105 -210q-25 0 -43 5q-10 2 -17 5v65q8 -3 16 -5q15 -5 34 -5q34 0 55 18.5t35 56.5l25 70l-195 480h75l155 -390l155 390h75l-220 -550q-30 -75 -64 -107.5t-86 -32.5zM210 700h70l110 -135h-65l-80 95l-80 -95h-65z" />
    <glyph glyph-name="Ydieresis" unicode="&#x178;" horiz-adv-x="635" 
d="M280 245l-260 455h85l210 -375h5l210 375h85l-260 -455v-245h-75v245zM225 810q-19 0 -32 13t-13 32t13 32t32 13t32 -13t13 -32t-13 -32t-32 -13zM415 810q-19 0 -32 13t-13 32t13 32t32 13t32 -13t13 -32t-13 -32t-32 -13z" />
    <glyph glyph-name="Zacute" unicode="&#x179;" horiz-adv-x="600" 
d="M45 70l410 560h-395v70h485v-70l-410 -560h420v-70h-510v70zM345 930h75l-95 -135h-55z" />
    <glyph glyph-name="zacute" unicode="&#x17a;" horiz-adv-x="465" 
d="M40 65l290 350h-280v65h365v-65l-290 -350h300v-65h-385v65zM280 700h75l-95 -135h-55z" />
    <glyph glyph-name="Zdotaccent" unicode="&#x17b;" horiz-adv-x="600" 
d="M45 70l410 560h-395v70h485v-70l-410 -560h420v-70h-510v70zM300 810q-19 0 -32 13t-13 32t13 32t32 13t32 -13t13 -32t-13 -32t-32 -13z" />
    <glyph glyph-name="zdotaccent" unicode="&#x17c;" horiz-adv-x="465" 
d="M40 65l290 350h-280v65h365v-65l-290 -350h300v-65h-385v65zM230 585q-19 0 -32 13t-13 32t13 32t32 13t32 -13t13 -32t-13 -32t-32 -13z" />
    <glyph glyph-name="Zcaron" unicode="&#x17d;" horiz-adv-x="600" 
d="M45 70l410 560h-395v70h485v-70l-410 -560h420v-70h-510v70zM155 930h65l80 -95l80 95h65l-110 -135h-70z" />
    <glyph glyph-name="zcaron" unicode="&#x17e;" horiz-adv-x="465" 
d="M40 65l290 350h-280v65h365v-65l-290 -350h300v-65h-385v65zM85 700h65l80 -95l80 95h65l-110 -135h-70z" />
    <glyph glyph-name="uni018F" unicode="&#x18f;" horiz-adv-x="785" 
d="M395 -10q-71 0 -132.5 26t-106.5 73.5t-70.5 113.5t-25.5 147h590q0 66 -20.5 119.5t-56.5 91.5t-85.5 58.5t-107.5 20.5q-59 0 -101 -15.5t-70 -34.5q-33 -22 -54 -50l-50 45q28 35 68 62q35 23 86 43t121 20q73 0 136 -26.5t109.5 -74.5t73 -114t26.5 -145
q0 -81 -25.5 -147t-70 -113.5t-105 -73.5t-129.5 -26zM395 60q47 0 88.5 14.5t74 43t55 69t31.5 93.5h-503q9 -52 31.5 -93t55.5 -69t75.5 -43t91.5 -15z" />
    <glyph glyph-name="florin" unicode="&#x192;" horiz-adv-x="350" 
d="M-20 -215q-14 0 -24.5 2t-18.5 5q-10 4 -17 8v65q7 -4 17 -8q8 -3 18.5 -5t24.5 -2q66 0 80 75l75 410h-80v65h90l35 170q14 72 50 106t100 34q13 0 24 -2.5t19 -5.5q10 -4 17 -7v-65q-7 3 -17 7q-8 3 -19 5.5t-24 2.5q-65 0 -80 -75l-35 -170h115v-65h-125l-75 -410
q-25 -140 -150 -140z" />
    <glyph glyph-name="uni01A0" unicode="&#x1a0;" horiz-adv-x="840" 
d="M420 -10q-75 0 -140.5 28t-114.5 77t-77 114.5t-28 140.5t28 140.5t77 114.5t114.5 77t140.5 28q13 0 24 -1t19 -2q10 -1 17 -2q19 -2 38 -3q17 -1 36 -1.5t36 -0.5q42 0 56 12.5t14 42.5q0 13 -2.5 25t-5.5 21q-4 11 -7 19h50q3 -9 7 -20q3 -10 5.5 -22.5t2.5 -27.5
q0 -45 -25.5 -70t-74.5 -25q47 -29 85 -72q16 -18 31 -42t27 -53t19.5 -63.5t7.5 -74.5q0 -75 -28 -140.5t-77 -114.5t-114.5 -77t-140.5 -28zM420 60q60 0 112 22t90.5 61t60.5 92t22 115t-22 115t-60.5 92t-90.5 61t-112 22t-112 -22t-90.5 -61t-60.5 -92t-22 -115
t22 -115t60.5 -92t90.5 -61t112 -22z" />
    <glyph glyph-name="uni01A1" unicode="&#x1a1;" 
d="M290 -10q-51 0 -95.5 19.5t-77.5 53t-52.5 79t-19.5 98.5q0 52 19.5 98t52.5 79.5t77.5 53t95.5 19.5q11 0 20 -1t16 -2q8 -1 14 -2q13 -2 27 -3q12 -1 25.5 -1.5t27.5 -0.5q42 0 56 12.5t14 42.5q0 13 -2.5 25t-5.5 21q-4 11 -7 19h50q3 -9 7 -20q3 -10 5.5 -22.5
t2.5 -27.5q0 -45 -25 -70t-70 -25q25 -22 45 -51q17 -25 31 -61t14 -83q0 -53 -19.5 -98.5t-52.5 -79t-77.5 -53t-95.5 -19.5zM290 55q36 0 67.5 14t55.5 39t38 59t14 73t-14 73t-38 59t-55.5 39t-67.5 14t-67.5 -14t-55.5 -39t-38 -59t-14 -73t14 -73t38 -58.5t55.5 -39
t67.5 -14.5z" />
    <glyph glyph-name="uni01AF" unicode="&#x1af;" horiz-adv-x="790" 
d="M380 -10q-60 0 -112 22t-90.5 60.5t-60.5 90.5t-22 112v425h75v-425q0 -47 16 -86.5t44 -68t66.5 -44.5t83.5 -16t83.5 16t66.5 44.5t44 68t16 86.5v425h100q26 0 38 12.5t12 42.5q0 13 -2.5 25t-5.5 21q-4 11 -7 19h50q3 -9 7 -20q3 -10 5.5 -22.5t2.5 -27.5
q0 -100 -100 -100h-25v-375q0 -60 -22 -112t-60.5 -90.5t-90.5 -60.5t-112 -22z" />
    <glyph glyph-name="uni01B0" unicode="&#x1b0;" horiz-adv-x="625" 
d="M275 -10q-41 0 -77 15t-62 43t-41 66.5t-15 85.5v280h70v-280q0 -32 10.5 -58.5t29 -46t43 -30t52.5 -10.5q30 0 56.5 11.5t46 32.5t31 50.5t11.5 65.5v265h95q26 0 38 12.5t12 42.5q0 13 -2.5 25t-5.5 21q-4 11 -7 19h50q3 -9 7 -20q3 -10 5.5 -22.5t2.5 -27.5
q0 -100 -100 -100h-25v-430h-70v65q-15 -21 -38 -38q-20 -14 -49 -25.5t-68 -11.5z" />
    <glyph glyph-name="Gacute" unicode="&#x1f4;" horiz-adv-x="795" 
d="M420 -10q-75 0 -140.5 28t-114.5 77t-77 114.5t-28 140.5t28 140.5t77 114.5t114.5 77t140.5 28q72 0 125 -23t89 -50q41 -32 71 -72l-50 -45q-24 34 -58 60q-29 23 -73 41.5t-104 18.5t-112 -22t-90.5 -61t-60.5 -92t-22 -115t22 -115t60.5 -92t90.5 -61t112 -22
q57 0 98 14.5t68 32.5q32 21 54 48v135h-160v70h235v-225q-32 -41 -76 -73q-38 -27 -92.5 -49.5t-126.5 -22.5zM455 930h75l-95 -135h-55z" />
    <glyph glyph-name="gacute" unicode="&#x1f5;" 
d="M265 -210q-51 0 -88.5 15.5t-62.5 34.5q-29 22 -49 50l45 45q17 -22 40 -40q20 -15 48.5 -27.5t66.5 -12.5q34 0 64 13.5t52.5 36.5t35.5 55t13 70v55q-14 -21 -37 -38q-20 -14 -50 -25.5t-73 -11.5q-47 0 -88 18.5t-71.5 51t-48 76t-17.5 94.5t17.5 94.5t48 76t71.5 51
t88 18.5q43 0 73 -12t50 -26q23 -17 37 -37v65h70v-450q0 -51 -18.5 -94.5t-50.5 -76t-74.5 -51t-91.5 -18.5zM270 75q34 0 63 13.5t50.5 36.5t34 55t12.5 70q0 37 -12.5 69.5t-34 55.5t-50.5 36.5t-63 13.5q-32 0 -60 -13.5t-49 -36.5t-33.5 -55.5t-12.5 -69.5
q0 -38 12.5 -70t33.5 -55t49 -36.5t60 -13.5zM330 700h75l-95 -135h-55z" />
    <glyph glyph-name="Aringacute" unicode="&#x1fa;" horiz-adv-x="690" 
d="M299 670q-22 11 -35.5 31.5t-13.5 43.5q0 38 26.5 64t68.5 26t68.5 -26t26.5 -64q0 -23 -13.5 -43.5t-35.5 -31.5l279 -670h-80l-80 195h-330l-80 -195h-80zM480 265l-135 335l-135 -335h270zM345 700q19 0 32 13t13 32t-13 32t-32 13t-32 -13t-13 -32t13 -32t32 -13z
M400 990h75l-95 -135h-55z" />
    <glyph glyph-name="aringacute" unicode="&#x1fb;" horiz-adv-x="520" 
d="M215 -10q-38 0 -69 12t-53.5 31.5t-35 45t-12.5 51.5q0 60 36 97t104 48l185 30q0 53 -33.5 86.5t-86.5 33.5q-32 0 -57 -11t-42 -24q-20 -16 -36 -35l-45 45q20 25 47 45q23 17 56 31t77 14q41 0 76 -14t60.5 -39t39.5 -59t14 -73v-305h-70v65q-15 -21 -38 -38
q-20 -14 -49 -25.5t-68 -11.5zM215 55q34 0 62.5 11.5t49 32.5t32 50.5t11.5 65.5v30l-165 -30q-90 -17 -90 -85q0 -30 25.5 -52.5t74.5 -22.5zM310 835h75l-95 -125h-55zM265 510q-40 0 -67.5 26t-27.5 64t27.5 64t67.5 26t67.5 -26t27.5 -64t-27.5 -64t-67.5 -26zM265 555
q19 0 32 13t13 32t-13 32t-32 13t-32 -13t-13 -32t13 -32t32 -13z" />
    <glyph glyph-name="AEacute" unicode="&#x1fc;" horiz-adv-x="950" 
d="M360 700h535v-70h-360v-230h280v-70h-280v-260h370v-70h-445v205h-295l-115 -205h-80zM460 275v355h-60l-200 -355h260zM585 930h75l-95 -135h-55z" />
    <glyph glyph-name="aeacute" unicode="&#x1fd;" horiz-adv-x="870" 
d="M215 -10q-39 0 -70.5 11.5t-53.5 30.5t-34 44.5t-12 53.5q0 30 12.5 57t34.5 48t52 33t66 12h165v15q0 58 -33.5 94t-86.5 36q-32 0 -56 -11t-41 -24q-19 -16 -33 -35l-45 45q18 25 44 45q22 17 54.5 31t75.5 14q45 0 76.5 -15.5t51.5 -34.5q23 -22 38 -50q20 28 47 50
q23 19 58 34.5t80 15.5t85 -18t70 -50t47.5 -77.5t17.5 -99.5q0 -6 -1 -11l-2 -10t-2 -9h-375q2 -32 16 -61t37 -51t52.5 -35t61.5 -13q38 0 65.5 12.5t46.5 27.5q22 18 38 40l46 -45q-21 -28 -50 -50q-25 -19 -61.5 -34.5t-84.5 -15.5q-51 0 -89 18.5t-63 41.5
q-30 26 -50 60q-16 -34 -43 -60q-23 -23 -60.5 -41.5t-91.5 -18.5zM215 55q36 0 65.5 13t50.5 35t32.5 51t11.5 61h-165q-45 0 -70 -23.5t-25 -61.5q0 -30 25.5 -52.5t74.5 -22.5zM760 280q-11 64 -53 104.5t-102 40.5q-30 0 -57.5 -12t-49 -32.5t-35.5 -46.5t-18 -54h315z
M485 700h75l-95 -135h-55z" />
    <glyph glyph-name="Oslashacute" unicode="&#x1fe;" horiz-adv-x="840" 
d="M50 30l90 90q-22 27 -40 62q-15 30 -27.5 72.5t-12.5 95.5q0 75 28 140.5t77 114.5t114.5 77t140.5 28q53 0 95 -12.5t72 -27.5q35 -18 63 -40l90 90l50 -50l-90 -90q22 -28 40 -63q15 -30 27.5 -72t12.5 -95q0 -75 -28 -140.5t-77 -114.5t-114.5 -77t-140.5 -28
q-53 0 -95.5 12.5t-72.5 27.5q-35 18 -62 40l-90 -90zM600 580q-22 17 -49 30q-23 11 -56 20.5t-75 9.5q-60 0 -112 -22t-90.5 -61t-60.5 -92t-22 -115q0 -42 8 -75t19 -56q12 -27 28 -49zM420 60q60 0 112 22t90.5 61t60.5 92t22 115q0 42 -8.5 75t-19.5 56q-12 27 -27 49
l-410 -410q22 -17 49 -30q23 -11 56 -20.5t75 -9.5zM470 930h75l-95 -135h-55z" />
    <glyph glyph-name="oslashacute" unicode="&#x1ff;" 
d="M35 20l65 65q-16 17 -28 40q-11 20 -19 48.5t-8 66.5q0 52 19.5 98t52.5 79.5t77.5 53t95.5 19.5q34 0 60.5 -8t45.5 -17q22 -11 39 -25l65 65l45 -45l-65 -65q15 -17 27 -40q11 -20 19.5 -48.5t8.5 -66.5q0 -53 -19.5 -98.5t-52.5 -79t-77.5 -53t-95.5 -19.5
q-34 0 -60.5 7.5t-45.5 17.5q-22 11 -39 25l-65 -65zM390 390q-13 9 -28 17q-14 7 -31.5 12.5t-40.5 5.5q-36 0 -67.5 -14t-55.5 -39t-38 -59t-14 -73q0 -25 4.5 -44t10.5 -33q6 -16 15 -28zM290 55q36 0 67.5 14t55.5 39t38 59t14 73q0 24 -5 43.5t-10 33.5q-7 16 -15 28
l-245 -255q11 -10 27 -18q13 -7 31.5 -12t41.5 -5zM340 700h75l-95 -135h-55z" />
    <glyph glyph-name="Scommaaccent" unicode="&#x218;" horiz-adv-x="565" 
d="M280 -10q-60 0 -104.5 16t-73.5 36q-34 23 -57 53l45 51q19 -25 46 -43q23 -17 59 -30t85 -13q79 0 119.5 36.5t40.5 93.5q0 34 -16.5 55.5t-43 36.5t-60.5 25.5t-70 21.5t-70 24.5t-60.5 35t-43 53t-16.5 78.5q0 38 15.5 72.5t45 60.5t71 41.5t93.5 15.5q51 0 89 -14
t64 -31q30 -20 52 -45l-50 -50q-16 19 -39 35q-20 13 -48.5 24t-67.5 11q-36 0 -64 -10t-47 -26.5t-29 -38t-10 -45.5q0 -45 28 -69.5t70.5 -40.5t91.5 -29t91.5 -34.5t70.5 -58t28 -98.5q0 -43 -15.5 -79.5t-45.5 -63.5t-74 -42t-100 -15zM255 -80h65l-60 -135h-50z" />
    <glyph glyph-name="scommaaccent" unicode="&#x219;" horiz-adv-x="430" 
d="M210 -10q-45 0 -78 13t-55 29q-26 18 -42 43l50 50q14 -20 32 -35q16 -14 39.5 -24.5t53.5 -10.5q53 0 79 23t26 57q0 27 -19.5 43t-48 26.5t-62.5 20t-62.5 24.5t-48 40t-19.5 66q0 26 11.5 50.5t32.5 43t50.5 30t65.5 11.5q38 0 66.5 -10.5t48.5 -22.5q23 -14 40 -32
l-50 -50q-11 14 -26 25q-14 9 -33.5 17t-45.5 8q-41 0 -65.5 -22t-24.5 -48t19.5 -41t48 -25t62.5 -19.5t62.5 -25t48 -41.5t19.5 -68q0 -30 -12 -56.5t-34.5 -46t-55 -31t-73.5 -11.5zM180 -80h65l-60 -135h-50z" />
    <glyph glyph-name="uni021A" unicode="&#x21a;" horiz-adv-x="555" 
d="M240 630h-220v70h515v-70h-220v-630h-75v630zM245 -80h65l-60 -135h-50z" />
    <glyph glyph-name="uni021B" unicode="&#x21b;" horiz-adv-x="360" 
d="M252 -10q-62 0 -97 36t-35 104v285h-90v65h55q40 0 40 50v110h65v-160h105v-65h-105v-285q0 -38 17.5 -56.5t47.5 -18.5q13 0 25 2t21 5q11 4 19 8v-65q-9 -4 -20 -8q-9 -3 -21.5 -5t-26.5 -2zM190 -80h65l-60 -135h-50z" />
    <glyph glyph-name="uni0232" unicode="&#x232;" horiz-adv-x="635" 
d="M280 245l-260 455h85l210 -375h5l210 375h85l-260 -455v-245h-75v245zM175 885h290v-55h-290v55z" />
    <glyph glyph-name="uni0233" unicode="&#x233;" horiz-adv-x="490" 
d="M105 -210q-25 0 -43 5q-10 2 -17 5v65q8 -3 16 -5q15 -5 34 -5q34 0 55 18.5t35 56.5l25 70l-195 480h75l155 -390l155 390h75l-220 -550q-30 -75 -64 -107.5t-86 -32.5zM100 665h290v-55h-290v55z" />
    <glyph glyph-name="uni0244" unicode="&#x244;" horiz-adv-x="770" 
d="M385 -10q-58 0 -108.5 21.5t-87.5 59.5t-58 90t-21 114v100h-100v70h100v255h75v-255h400v255h75v-255h100v-70h-100v-100q0 -62 -21 -114t-58 -90t-87.5 -59.5t-108.5 -21.5zM385 60q43 0 79.5 15.5t63.5 43.5t42 67.5t15 88.5v100h-400v-100q0 -49 15 -88.5t42 -67.5
t63.5 -43.5t79.5 -15.5z" />
    <glyph glyph-name="uni0259" unicode="&#x259;" horiz-adv-x="555" 
d="M280 -10q-51 0 -94 18t-74.5 51t-49 79t-17.5 102v16l395 -1q-2 34 -16 64.5t-37 54t-53 37.5t-64 14q-38 0 -66 -12t-47 -26q-22 -17 -37 -37l-50 40q21 28 51 50q26 19 63 34.5t86 15.5t92.5 -19.5t76.5 -53t52 -79.5t19 -98q0 -53 -19 -98.5t-51 -79t-73.5 -53
t-86.5 -19.5zM280 55q28 0 54.5 10.5t47.5 29.5t35 44.5t18 55.5h-315q8 -64 52 -102t108 -38z" />
    <glyph glyph-name="uni0289" unicode="&#x289;" horiz-adv-x="600" 
d="M285 -10q-41 0 -76 14.5t-60.5 41.5t-39.5 66t-14 88v50h-75v65h75v165h70v-165h270v165h70v-165h75v-65h-75v-250h-70v65q-16 -21 -38 -38q-19 -14 -46.5 -25.5t-65.5 -11.5zM295 55q60 0 100 42.5t40 117.5v35h-270v-50q0 -68 36.5 -106.5t93.5 -38.5z" />
    <glyph glyph-name="uni02BC" unicode="&#x2bc;" horiz-adv-x="170" 
d="M75 700h65l-60 -135h-50z" />
    <glyph glyph-name="circumflex" unicode="&#x2c6;" horiz-adv-x="350" 
d="M140 700h70l110 -135h-65l-80 95l-80 -95h-65z" />
    <glyph glyph-name="caron" unicode="&#x2c7;" horiz-adv-x="350" 
d="M30 700h65l80 -95l80 95h65l-110 -135h-70z" />
    <glyph glyph-name="breve" unicode="&#x2d8;" horiz-adv-x="330" 
d="M165 565q-60 0 -97.5 37.5t-37.5 97.5h55q0 -42 21 -63.5t59 -21.5t59 21.5t21 63.5h55q0 -60 -37.5 -97.5t-97.5 -37.5z" />
    <glyph glyph-name="dotaccent" unicode="&#x2d9;" horiz-adv-x="150" 
d="M75 595q-19 0 -32 13t-13 32t13 32t32 13t32 -13t13 -32t-13 -32t-32 -13z" />
    <glyph glyph-name="ring" unicode="&#x2da;" horiz-adv-x="250" 
d="M125 510q-20 0 -37 7t-30 19t-20.5 28.5t-7.5 35.5t7.5 35.5t20.5 28.5t30 19t37 7q19 0 36.5 -7t30.5 -19t20.5 -28.5t7.5 -35.5t-7.5 -35.5t-20.5 -28.5t-30.5 -19t-36.5 -7zM125 555q19 0 32 13t13 32t-13 32t-32 13t-32 -13t-13 -32t13 -32t32 -13z" />
    <glyph glyph-name="ogonek" unicode="&#x2db;" horiz-adv-x="220" 
d="M125 -205q-45 0 -70 25t-25 60q0 34 22.5 66.5t62.5 53.5h70q-49 -23 -77 -51.5t-28 -58.5q0 -22 13 -33.5t32 -11.5q30 0 60 15v-50q-26 -15 -60 -15z" />
    <glyph glyph-name="tilde" unicode="&#x2dc;" horiz-adv-x="370" 
d="M30 575q0 60 26 90t64 30q26 0 43.5 -10t31 -22.5t26 -22.5t29.5 -10q15 0 27.5 15.5t12.5 49.5h50q0 -60 -26 -90t-64 -30q-26 0 -43.5 10t-31 22.5t-26 22.5t-29.5 10q-15 0 -27.5 -15.5t-12.5 -49.5h-50v0z" />
    <glyph glyph-name="hungarumlaut" unicode="&#x2dd;" horiz-adv-x="365" 
d="M105 700h75l-96 -135h-54zM259 700h76l-95 -135h-55z" />
    <glyph glyph-name="acutecomb" unicode="&#x301;" horiz-adv-x="0" 
d="M-325 865h75l-95 -135h-55z" />
    <glyph glyph-name="uni0302" unicode="&#x302;" horiz-adv-x="0" 
d="M-410 865h70l110 -135h-65l-80 95l-80 -95h-65z" />
    <glyph glyph-name="uni0304" unicode="&#x304;" horiz-adv-x="0" 
d="M-515 825h290v-55h-290v55z" />
    <glyph glyph-name="uni0306" unicode="&#x306;" horiz-adv-x="0" 
d="M-370 720q-60 0 -97.5 37.5t-37.5 97.5h55q0 -42 21 -63.5t59 -21.5t59 21.5t21 63.5h55q0 -60 -37.5 -97.5t-97.5 -37.5z" />
    <glyph glyph-name="uni0307" unicode="&#x307;" horiz-adv-x="0" 
d="M-370 750q-19 0 -32 13t-13 32t13 32t32 13t32 -13t13 -32t-13 -32t-32 -13z" />
    <glyph glyph-name="uni0308" unicode="&#x308;" horiz-adv-x="0" 
d="M-470 750q-19 0 -32 13t-13 32t13 32t32 13t32 -13t13 -32t-13 -32t-32 -13zM-280 750q-19 0 -32 13t-13 32t13 32t32 13t32 -13t13 -32t-13 -32t-32 -13z" />
    <glyph glyph-name="uni0309" unicode="&#x309;" horiz-adv-x="220" 
d="M105 550q9 13 17 27q7 12 12.5 27.5t5.5 30.5q0 45 -50 45q-11 0 -22 -2.5t-19 -5.5q-10 -4 -19 -7v50q8 3 19 7q9 3 21 5.5t26 2.5q45 0 69.5 -24t24.5 -66q0 -19 -5.5 -35.5t-12.5 -28.5q-8 -14 -17 -26h-50v0z" />
    <glyph glyph-name="uni030A" unicode="&#x30a;" horiz-adv-x="0" 
d="M-370 735q-20 0 -37 7t-30 19t-20.5 28.5t-7.5 35.5t7.5 35.5t20.5 28.5t30 19t37 7q19 0 36.5 -7t30.5 -19t20.5 -28.5t7.5 -35.5t-7.5 -35.5t-20.5 -28.5t-30.5 -19t-36.5 -7zM-370 780q19 0 32 13t13 32t-13 32t-32 13t-32 -13t-13 -32t13 -32t32 -13z" />
    <glyph glyph-name="uni030C" unicode="&#x30c;" horiz-adv-x="0" 
d="M-511 865h65l80 -95l80 95h65l-110 -135h-70z" />
    <glyph glyph-name="uni031B" unicode="&#x31b;" horiz-adv-x="185" 
d="M30 480h25q26 0 38 12.5t12 42.5q0 13 -2.5 25t-5.5 21q-4 11 -7 19h50q3 -9 7 -20q3 -10 5.5 -22.5t2.5 -27.5q0 -100 -100 -100h-25v50z" />
    <glyph glyph-name="uni0323" unicode="&#x323;" horiz-adv-x="150" 
d="M75 -170q-19 0 -32 13t-13 32t13 32t32 13t32 -13t13 -32t-13 -32t-32 -13z" />
    <glyph glyph-name="uni0326" unicode="&#x326;" horiz-adv-x="170" 
d="M75 -80h65l-60 -135h-50z" />
    <glyph glyph-name="Alphatonos" unicode="&#x386;" horiz-adv-x="690" 
d="M310 700h70l290 -700h-80l-80 195h-330l-80 -195h-80zM480 265l-135 330l-135 -330h270zM155 700h75l-95 -135h-55z" />
    <glyph glyph-name="Epsilontonos" unicode="&#x388;" horiz-adv-x="640" 
d="M105 700h480v-70h-405v-230h325v-70h-325v-260h415v-70h-490v700zM10 700h75l-95 -135h-55z" />
    <glyph glyph-name="Etatonos" unicode="&#x389;" horiz-adv-x="750" 
d="M105 700h75v-310h390v310h75v-700h-75v320h-390v-320h-75v700zM10 700h75l-95 -135h-55z" />
    <glyph glyph-name="Iotatonos" unicode="&#x38a;" horiz-adv-x="285" 
d="M105 700h75v-700h-75v700zM10 700h75l-95 -135h-55z" />
    <glyph glyph-name="Omicrontonos" unicode="&#x38c;" horiz-adv-x="840" 
d="M420 -10q-75 0 -140.5 28t-114.5 77t-77 114.5t-28 140.5t28 140.5t77 114.5t114.5 77t140.5 28t140.5 -28t114.5 -77t77 -114.5t28 -140.5t-28 -140.5t-77 -114.5t-114.5 -77t-140.5 -28zM420 60q60 0 112 22t90.5 61t60.5 92t22 115t-22 115t-60.5 92t-90.5 61t-112 22
t-112 -22t-90.5 -61t-60.5 -92t-22 -115t22 -115t60.5 -92t90.5 -61t112 -22zM55 700h75l-95 -135h-55z" />
    <glyph glyph-name="Upsilontonos" unicode="&#x38e;" horiz-adv-x="675" 
d="M320 245l-260 455h85l210 -375h5l210 375h85l-260 -455v-245h-75v245zM-25 700h75l-95 -135h-55z" />
    <glyph glyph-name="Omegatonos" unicode="&#x38f;" horiz-adv-x="870" 
d="M105 70h125q-36 21 -64.5 51.5t-48.5 67.5t-31 78.5t-11 82.5q0 75 28 140.5t77 114.5t114.5 77t140.5 28t140.5 -28t114.5 -77t77 -114.5t28 -140.5q0 -41 -11 -82.5t-31 -78.5t-48.5 -67.5t-64.5 -51.5h125v-70h-250v70q43 13 80.5 39.5t65 63t43.5 81.5t16 96
q0 62 -22 115t-60.5 92t-90.5 61t-112 22t-112 -22t-90.5 -61t-60.5 -92t-22 -115q0 -51 16 -96t43.5 -81.5t65 -63t80.5 -39.5v-70h-250v70zM70 700h75l-95 -135h-55z" />
    <glyph glyph-name="iotadieresistonos" unicode="&#x390;" horiz-adv-x="295" 
d="M20 585q-19 0 -32 13t-13 32t13 32t32 13t32 -13t13 -32t-13 -32t-32 -13zM119 700h75l-95 -135h-55zM210 585q-19 0 -32 13t-13 32t13 32t32 13t32 -13t13 -32t-13 -32t-32 -13zM210 -10q-60 0 -95 36t-35 104v350h70v-350q0 -75 70 -75q11 0 21 2t18 5q9 4 16 8v-65
q-8 -4 -19 -8q-9 -3 -21 -5t-25 -2z" />
    <glyph glyph-name="Alpha" unicode="&#x391;" horiz-adv-x="690" 
d="M310 700h70l290 -700h-80l-80 195h-330l-80 -195h-80zM480 265l-135 330l-135 -330h270z" />
    <glyph glyph-name="Beta" unicode="&#x392;" horiz-adv-x="665" 
d="M105 700h270q43 0 79 -14t61.5 -38.5t40 -57.5t14.5 -70q0 -42 -12.5 -69.5t-27.5 -44.5q-18 -20 -40 -31q31 -15 57 -39q22 -21 40 -54t18 -82q0 -43 -15.5 -79.5t-43.5 -63.5t-67.5 -42t-88.5 -15h-285v700zM390 70q64 0 102 36.5t38 93.5q0 28 -10 53.5t-28 44.5
t-44 30.5t-58 11.5h-210v-270h210zM375 406q57 0 88.5 30.5t31.5 83.5q0 49 -31.5 79.5t-88.5 30.5h-195v-224h195z" />
    <glyph glyph-name="Gamma" unicode="&#x393;" horiz-adv-x="550" 
d="M105 700h435v-70h-360v-630h-75v700z" />
    <glyph glyph-name="uni0394" unicode="&#x394;" horiz-adv-x="680" 
d="M305 700h70l295 -700h-660zM560 70l-220 525l-220 -525h440z" />
    <glyph glyph-name="Epsilon" unicode="&#x395;" horiz-adv-x="640" 
d="M105 700h480v-70h-405v-230h325v-70h-325v-260h415v-70h-490v700z" />
    <glyph glyph-name="Zeta" unicode="&#x396;" horiz-adv-x="600" 
d="M45 70l410 560h-395v70h485v-70l-410 -560h420v-70h-510v70z" />
    <glyph glyph-name="Eta" unicode="&#x397;" horiz-adv-x="750" 
d="M105 700h75v-310h390v310h75v-700h-75v320h-390v-320h-75v700z" />
    <glyph glyph-name="Theta" unicode="&#x398;" horiz-adv-x="840" 
d="M420 -10q-75 0 -140.5 28t-114.5 77t-77 114.5t-28 140.5t28 140.5t77 114.5t114.5 77t140.5 28t140.5 -28t114.5 -77t77 -114.5t28 -140.5t-28 -140.5t-77 -114.5t-114.5 -77t-140.5 -28zM420 60q60 0 112 22t90.5 61t60.5 92t22 115t-22 115t-60.5 92t-90.5 61t-112 22
t-112 -22t-90.5 -61t-60.5 -92t-22 -115t22 -115t60.5 -92t90.5 -61t112 -22zM215 390h410v-70h-410v70z" />
    <glyph glyph-name="Iota" unicode="&#x399;" horiz-adv-x="285" 
d="M105 700h75v-700h-75v700z" />
    <glyph glyph-name="Kappa" unicode="&#x39a;" horiz-adv-x="670" 
d="M105 700h75v-395l360 395h95l-265 -290l290 -410h-90l-250 355l-140 -150v-205h-75v700z" />
    <glyph glyph-name="Lambda" unicode="&#x39b;" horiz-adv-x="680" 
d="M305 700h70l285 -700h-80l-240 595l-240 -595h-80z" />
    <glyph glyph-name="Mu" unicode="&#x39c;" horiz-adv-x="920" 
d="M105 700h65l290 -380l290 380h65v-700h-75v570l-280 -370l-280 370v-570h-75v700z" />
    <glyph glyph-name="Nu" unicode="&#x39d;" horiz-adv-x="780" 
d="M105 700h65l430 -565v565h75v-700h-65l-430 565v-565h-75v700z" />
    <glyph glyph-name="Xi" unicode="&#x39e;" horiz-adv-x="660" 
d="M70 70h520v-70h-520v70zM145 400h370v-70h-370v70zM85 700h490v-70h-490v70z" />
    <glyph glyph-name="Omicron" unicode="&#x39f;" horiz-adv-x="840" 
d="M420 -10q-75 0 -140.5 28t-114.5 77t-77 114.5t-28 140.5t28 140.5t77 114.5t114.5 77t140.5 28t140.5 -28t114.5 -77t77 -114.5t28 -140.5t-28 -140.5t-77 -114.5t-114.5 -77t-140.5 -28zM420 60q60 0 112 22t90.5 61t60.5 92t22 115t-22 115t-60.5 92t-90.5 61t-112 22
t-112 -22t-90.5 -61t-60.5 -92t-22 -115t22 -115t60.5 -92t90.5 -61t112 -22z" />
    <glyph glyph-name="Pi" unicode="&#x3a0;" horiz-adv-x="750" 
d="M105 700h540v-700h-75v630h-390v-630h-75v700z" />
    <glyph glyph-name="Rho" unicode="&#x3a1;" horiz-adv-x="650" 
d="M105 700h265q49 0 90 -17t71 -46.5t47 -69.5t17 -87t-17 -87t-47 -69.5t-71 -46.5t-90 -17h-190v-260h-75v700zM370 330q68 0 109 41t41 109t-41 109t-109 41h-190v-300h190z" />
    <glyph glyph-name="Sigma" unicode="&#x3a3;" horiz-adv-x="600" 
d="M60 60l230 305l-230 275v60h495v-70h-395l225 -265l-225 -295h395v-70h-495v60z" />
    <glyph glyph-name="Tau" unicode="&#x3a4;" horiz-adv-x="555" 
d="M240 630h-220v70h515v-70h-220v-630h-75v630z" />
    <glyph glyph-name="Upsilon" unicode="&#x3a5;" horiz-adv-x="635" 
d="M280 245l-260 455h85l210 -375h5l210 375h85l-260 -455v-245h-75v245z" />
    <glyph glyph-name="Phi" unicode="&#x3a6;" horiz-adv-x="845" 
d="M385 30q-71 2 -131 27t-103 67.5t-67 100t-24 125.5q0 67 24 125t67 100.5t103 67.5t131 27v80h75v-80q71 -2 131 -27t103 -67.5t67 -100.5t24 -125q0 -68 -24 -125.5t-67 -100t-103 -67.5t-131 -27v-80h-75v80zM385 600q-58 -2 -104.5 -20t-78.5 -50.5t-49.5 -78
t-17.5 -101.5t17.5 -101.5t49.5 -78t78.5 -50.5t104.5 -20v500zM460 100q58 2 104.5 20t78.5 50.5t49.5 78t17.5 101.5t-17.5 101.5t-49.5 78t-78.5 50.5t-104.5 20v-500z" />
    <glyph glyph-name="Chi" unicode="&#x3a7;" horiz-adv-x="650" 
d="M280 365l-240 335h90l195 -275l195 275h90l-240 -335l260 -365h-90l-215 305l-215 -305h-90z" />
    <glyph glyph-name="Psi" unicode="&#x3a8;" horiz-adv-x="805" 
d="M365 210q-66 2 -119.5 24t-91.5 63t-58.5 99.5t-20.5 133.5v170h75v-170q0 -124 57 -185t158 -65v420h75v-420q101 4 158 65t57 185v170h75v-170q0 -75 -20.5 -133.5t-58.5 -99.5t-91.5 -63t-119.5 -24v-210h-75v210z" />
    <glyph glyph-name="uni03A9" unicode="&#x3a9;" horiz-adv-x="870" 
d="M105 70h125q-36 21 -64.5 51.5t-48.5 67.5t-31 78.5t-11 82.5q0 75 28 140.5t77 114.5t114.5 77t140.5 28t140.5 -28t114.5 -77t77 -114.5t28 -140.5q0 -41 -11 -82.5t-31 -78.5t-48.5 -67.5t-64.5 -51.5h125v-70h-250v70q43 13 80.5 39.5t65 63t43.5 81.5t16 96
q0 62 -22 115t-60.5 92t-90.5 61t-112 22t-112 -22t-90.5 -61t-60.5 -92t-22 -115q0 -51 16 -96t43.5 -81.5t65 -63t80.5 -39.5v-70h-250v70z" />
    <glyph glyph-name="Iotadieresis" unicode="&#x3aa;" horiz-adv-x="285" 
d="M50 810q-19 0 -32 13t-13 32t13 32t32 13t32 -13t13 -32t-13 -32t-32 -13zM240 810q-19 0 -32 13t-13 32t13 32t32 13t32 -13t13 -32t-13 -32t-32 -13zM105 700h75v-700h-75v700z" />
    <glyph glyph-name="Upsilondieresis" unicode="&#x3ab;" horiz-adv-x="635" 
d="M280 245l-260 455h85l210 -375h5l210 375h85l-260 -455v-245h-75v245zM225 810q-19 0 -32 13t-13 32t13 32t32 13t32 -13t13 -32t-13 -32t-32 -13zM415 810q-19 0 -32 13t-13 32t13 32t32 13t32 -13t13 -32t-13 -32t-32 -13z" />
    <glyph glyph-name="alphatonos" unicode="&#x3ac;" horiz-adv-x="605" 
d="M280 -10q-49 0 -91.5 18.5t-74.5 52t-50.5 79.5t-18.5 100t18.5 100t50.5 79.5t74.5 52t91.5 18.5q42 0 72.5 -12.5t51.5 -27.5q24 -18 41 -40v70h70v-375q0 -24 12.5 -37t32.5 -13q10 0 18 2q4 1 7 3v-65q-4 -2 -8 -3t-9 -1.5t-13 -0.5q-38 0 -60 12.5t-33 27.5
q-13 18 -17 40q-17 -22 -41 -40q-21 -15 -51.5 -27.5t-72.5 -12.5zM280 55q32 0 61.5 14t52.5 39t37 59t14 73t-14 73t-37 59t-52.5 39t-61.5 14q-34 0 -64 -13.5t-52.5 -38t-35.5 -58.5t-13 -75t13 -75t35.5 -58.5t52.5 -38t64 -13.5zM330 700h75l-95 -135h-55z" />
    <glyph glyph-name="epsilontonos" unicode="&#x3ad;" horiz-adv-x="460" 
d="M250 -10q-53 0 -90.5 12t-62 32.5t-36 46.5t-11.5 54q0 38 14.5 60.5t32.5 34.5q21 14 48 20q-21 8 -38 23q-14 13 -25.5 34t-11.5 53q0 26 11 49.5t33.5 41.5t56.5 28.5t79 10.5q39 0 69 -8.5t50 -19.5q24 -12 41 -27l-45 -50q-12 11 -29 20q-14 8 -36 14t-50 6
q-60 0 -85 -20t-25 -50t25.5 -52.5t74.5 -22.5h75v-65h-75q-64 0 -92 -23t-28 -57q0 -30 32 -55t103 -25q34 0 60 8t44 19q21 12 36 28l45 -45q-19 -21 -46 -38q-23 -14 -59 -25.5t-85 -11.5zM287 700h75l-95 -135h-55z" />
    <glyph glyph-name="etatonos" unicode="&#x3ae;" 
d="M80 480h70v-70q15 22 38 40q20 15 48.5 27.5t68.5 12.5q43 0 79 -14.5t61.5 -41t40 -64.5t14.5 -85v-285h-70v285q0 64 -36.5 102t-93.5 38q-32 0 -59.5 -11.5t-47.5 -32.5t-31.5 -50.5t-11.5 -65.5v-265h-70v480zM340 700h75l-95 -135h-55z" />
    <glyph glyph-name="iotatonos" unicode="&#x3af;" horiz-adv-x="295" 
d="M210 -10q-60 0 -95 36t-35 104v350h70v-350q0 -75 70 -75q11 0 21 2t18 5q9 4 16 8v-65q-8 -4 -19 -8q-9 -3 -21 -5t-25 -2zM160 700h75l-95 -135h-55z" />
    <glyph glyph-name="upsilondieresistonos" unicode="&#x3b0;" 
d="M195 585q-19 0 -32 13t-13 32t13 32t32 13t32 -13t13 -32t-13 -32t-32 -13zM294 700h75l-95 -135h-55zM385 585q-19 0 -32 13t-13 32t13 32t32 13t32 -13t13 -32t-13 -32t-32 -13zM290 -10q-47 0 -85.5 15t-66.5 43t-43 66.5t-15 85.5v280h70v-280q0 -68 38 -106.5
t102 -38.5t102 38.5t38 106.5v280h70v-280q0 -47 -15 -85.5t-43 -66.5t-66.5 -43t-85.5 -15z" />
    <glyph glyph-name="alpha" unicode="&#x3b1;" horiz-adv-x="605" 
d="M280 -10q-49 0 -91.5 18.5t-74.5 52t-50.5 79.5t-18.5 100t18.5 100t50.5 79.5t74.5 52t91.5 18.5q42 0 72.5 -12.5t51.5 -27.5q24 -18 41 -40v70h70v-375q0 -24 12.5 -37t32.5 -13q10 0 18 2q4 1 7 3v-65q-4 -2 -8 -3t-9 -1.5t-13 -0.5q-38 0 -60 12.5t-33 27.5
q-13 18 -17 40q-17 -22 -41 -40q-21 -15 -51.5 -27.5t-72.5 -12.5zM280 55q32 0 61.5 14t52.5 39t37 59t14 73t-14 73t-37 59t-52.5 39t-61.5 14q-34 0 -64 -13.5t-52.5 -38t-35.5 -58.5t-13 -75t13 -75t35.5 -58.5t52.5 -38t64 -13.5z" />
    <glyph glyph-name="beta" unicode="&#x3b2;" horiz-adv-x="570" 
d="M85 520q0 41 14.5 76t40 60.5t61.5 39.5t79 14q41 0 76 -14t60.5 -37.5t39.5 -54t14 -64.5q0 -41 -13.5 -68.5t-29.5 -44.5q-18 -20 -42 -32q37 -12 67 -36q13 -11 25 -25t21.5 -32t15.5 -41t6 -51q0 -47 -15.5 -85.5t-45 -66.5t-72.5 -43t-97 -15h-135v-210h-70v730z
M290 65q34 0 63 10t50.5 28.5t34 45.5t12.5 61q0 64 -40.5 104.5t-119.5 40.5h-75v65h55q64 0 97 31t33 84q0 22 -9 42t-25 35t-38 24t-48 9q-57 0 -91 -34t-34 -91v-455h135z" />
    <glyph glyph-name="gamma" unicode="&#x3b3;" horiz-adv-x="490" 
d="M210 0l-195 480h75l155 -385l155 385h75l-195 -480v-210h-70v210z" />
    <glyph glyph-name="delta" unicode="&#x3b4;" 
d="M285 -10q-49 0 -91.5 18.5t-74.5 50.5t-50.5 74.5t-18.5 91.5q0 51 17.5 94t48 74.5t71.5 49t88 17.5q32 0 56 -7.5t41 -15.5q19 -10 33 -22h5q-21 41 -55 78t-76 66.5t-89.5 50.5t-94.5 30v60h360v-60h-190v-5q36 -15 80 -48.5t83 -82.5t65.5 -112t26.5 -137
q0 -60 -18.5 -109t-50.5 -83.5t-74.5 -53.5t-91.5 -19zM285 55q34 0 64 13t52.5 36t35.5 54t13 67q0 39 -13 70.5t-35.5 53.5t-52.5 34t-64 12q-36 0 -66 -12.5t-52 -35t-34.5 -54t-12.5 -68.5q0 -36 13 -67t35.5 -54t52.5 -36t64 -13z" />
    <glyph glyph-name="epsilon" unicode="&#x3b5;" horiz-adv-x="460" 
d="M250 -10q-53 0 -90.5 12t-62 32.5t-36 46.5t-11.5 54q0 38 14.5 60.5t32.5 34.5q21 14 48 20q-21 8 -38 23q-14 13 -25.5 34t-11.5 53q0 26 11 49.5t33.5 41.5t56.5 28.5t79 10.5q39 0 69 -8.5t50 -19.5q24 -12 41 -27l-45 -50q-12 11 -29 20q-14 8 -36 14t-50 6
q-60 0 -85 -20t-25 -50t25.5 -52.5t74.5 -22.5h75v-65h-75q-64 0 -92 -23t-28 -57q0 -30 32 -55t103 -25q34 0 60 8t44 19q21 12 36 28l45 -45q-19 -21 -46 -38q-23 -14 -59 -25.5t-85 -11.5z" />
    <glyph glyph-name="zeta" unicode="&#x3b6;" horiz-adv-x="465" 
d="M345 -150q0 32 5 60t12 49q8 25 18 46q-11 -4 -25 -8q-12 -3 -29.5 -5t-40.5 -2q-109 0 -169.5 55.5t-60.5 149.5q0 43 12 85t32 81t45.5 74.5t52.5 65.5q62 71 143 134h-260v65h360v-65q-88 -65 -158 -136q-30 -30 -58 -65t-50 -73t-35.5 -77.5t-13.5 -78.5
q0 -72 41 -111t124 -39q32 0 57 3.5t42 8.5q20 5 36 13l40 -50q-14 -25 -25 -54q-10 -25 -17.5 -57.5t-7.5 -68.5h-70v0z" />
    <glyph glyph-name="eta" unicode="&#x3b7;" 
d="M80 480h70v-70q15 22 38 40q20 15 48.5 27.5t68.5 12.5q43 0 79 -14.5t61.5 -41t40 -64.5t14.5 -85v-285h-70v285q0 64 -36.5 102t-93.5 38q-32 0 -59.5 -11.5t-47.5 -32.5t-31.5 -50.5t-11.5 -65.5v-265h-70v480z" />
    <glyph glyph-name="theta" unicode="&#x3b8;" horiz-adv-x="610" 
d="M305 -10q-47 0 -90.5 22t-76.5 66.5t-53 112t-20 159.5t20 159.5t53 112t76.5 66.5t90.5 22t90.5 -22t76.5 -66.5t53 -112t20 -159.5t-20 -159.5t-53 -112t-76.5 -66.5t-90.5 -22zM305 55q32 0 61 14t52 45t38 80.5t18 120.5h-338q3 -71 18 -120.5t38 -80.5t52 -45
t61 -14zM474 380q-2 69 -15.5 119.5t-36.5 82.5t-53 47.5t-64 15.5t-64 -15.5t-53 -47.5t-37 -82.5t-16 -119.5h339z" />
    <glyph glyph-name="iota" unicode="&#x3b9;" horiz-adv-x="295" 
d="M210 -10q-60 0 -95 36t-35 104v350h70v-350q0 -75 70 -75q11 0 21 2t18 5q9 4 16 8v-65q-8 -4 -19 -8q-9 -3 -21 -5t-25 -2z" />
    <glyph glyph-name="kappa" unicode="&#x3ba;" horiz-adv-x="505" 
d="M80 480h70v-255l240 255h85l-185 -195l205 -285h-80l-170 235l-95 -100v-135h-70v480z" />
    <glyph glyph-name="lambda" unicode="&#x3bb;" horiz-adv-x="500" 
d="M225 480l-40 100q-15 38 -34.5 51.5t-45.5 13.5q-10 0 -18 -1.5t-14 -3.5q-7 -3 -13 -5v65q7 2 17 5q8 2 18.5 3.5t24.5 1.5q49 0 79.5 -25.5t55.5 -89.5l230 -595h-75l-150 390l-162 -390h-73z" />
    <glyph glyph-name="uni03BC" unicode="&#x3bc;" 
d="M80 480h70v-285q0 -64 36.5 -102t93.5 -38q32 0 59.5 11.5t47.5 32.5t31.5 50.5t11.5 65.5v265h70v-480h-70v70q-15 -22 -38 -40q-20 -15 -49 -27.5t-68 -12.5q-32 0 -55 6t-39 14q-18 9 -31 20v-240h-70v690z" />
    <glyph glyph-name="nu" unicode="&#x3bd;" horiz-adv-x="490" 
d="M15 480h75l155 -385l155 385h75l-195 -480h-70z" />
    <glyph glyph-name="xi" unicode="&#x3be;" horiz-adv-x="520" 
d="M385 -150q0 32 5 60t12 49q8 25 18 46q-9 -4 -23 -8q-12 -3 -30 -5t-42 -2q-64 0 -112.5 16t-81.5 43.5t-49.5 65t-16.5 80.5q0 54 20.5 89.5t45.5 56.5t47.5 29.5t25.5 9.5q-2 0 -20 7t-39 24.5t-38 46t-17 72.5q0 37 14.5 70t42.5 57.5t67.5 38.5t90.5 14q43 0 73 -7.5
t50 -15.5q23 -10 37 -22l-40 -55q-11 9 -28 17q-14 7 -37 12.5t-55 5.5q-72 0 -108.5 -33t-36.5 -82t38 -82t117 -33h65v-70h-65q-43 0 -76.5 -11.5t-56.5 -31.5t-35 -47.5t-12 -59.5q0 -60 47 -100t148 -40q32 0 57 3.5t42 8.5q20 5 36 13l40 -50q-14 -25 -25 -54
q-10 -25 -17.5 -57.5t-7.5 -68.5h-70v0z" />
    <glyph glyph-name="omicron" unicode="&#x3bf;" 
d="M290 -10q-51 0 -95.5 19.5t-77.5 53t-52.5 79t-19.5 98.5q0 52 19.5 98t52.5 79.5t77.5 53t95.5 19.5t95.5 -19.5t77.5 -53t52.5 -79.5t19.5 -98q0 -53 -19.5 -98.5t-52.5 -79t-77.5 -53t-95.5 -19.5zM290 55q36 0 67.5 14t55.5 39t38 59t14 73t-14 73t-38 59t-55.5 39
t-67.5 14t-67.5 -14t-55.5 -39t-38 -59t-14 -73t14 -73t38 -58.5t55.5 -39t67.5 -14.5z" />
    <glyph glyph-name="pi" unicode="&#x3c0;" horiz-adv-x="585" 
d="M80 480h425v-480h-70v414h-285v-414h-70v480z" />
    <glyph glyph-name="rho" unicode="&#x3c1;" horiz-adv-x="600" 
d="M75 240q0 54 18.5 100t51 79.5t76 52t94.5 18.5t94.5 -18.5t76 -52t51 -79.5t18.5 -100t-18.5 -100t-51 -79.5t-76 -52t-94.5 -18.5q-44 0 -75.5 12.5t-52.5 27.5q-25 18 -42 40v-280h-70v450zM315 55q36 0 67 13.5t54 38t36 58.5t13 75t-13 75t-36 58.5t-54 38t-67 13.5
t-67 -13.5t-54 -38t-36 -58.5t-13 -75t13 -75t36 -58.5t54 -38t67 -13.5z" />
    <glyph glyph-name="sigma1" unicode="&#x3c2;" horiz-adv-x="515" 
d="M340 -150q0 32 5 59t12 47q8 23 18 42q-7 -2 -17 -4q-8 -2 -19 -3t-24 -1q-61 0 -110.5 19t-85 52.5t-55 79.5t-19.5 99q0 54 18.5 100t51.5 79.5t77.5 52t97.5 18.5q43 0 76 -9.5t55 -20.5q26 -13 44 -30l-40 -50q-16 12 -36 22q-17 8 -42 15.5t-57 7.5q-38 0 -70 -13.5
t-55 -38t-36.5 -58.5t-13.5 -75q0 -40 14 -74t41 -58.5t66 -38.5t89 -14q23 0 40.5 3t29.5 7q14 4 25 10l40 -50q-14 -23 -25 -50q-10 -23 -17.5 -55t-7.5 -70h-70v0z" />
    <glyph glyph-name="sigma" unicode="&#x3c3;" horiz-adv-x="600" 
d="M290 -10q-53 0 -97.5 18.5t-77.5 51.5t-51.5 77.5t-18.5 97.5q0 52 18.5 97t51.5 78t77.5 51.5t97.5 18.5h10h290v-65h-140q38 -30 61.5 -76.5t23.5 -103.5q0 -53 -18.5 -97.5t-51.5 -77.5t-78 -51.5t-97 -18.5zM290 55q37 0 69.5 13.5t55.5 37.5t36.5 57t13.5 72
t-13.5 72t-36.5 57t-55.5 37.5t-69.5 13.5q-38 0 -70 -13.5t-55 -37.5t-36.5 -57t-13.5 -72t13.5 -72t36.5 -57t55 -37.5t70 -13.5z" />
    <glyph glyph-name="tau" unicode="&#x3c4;" horiz-adv-x="445" 
d="M310 -10q-60 0 -95 36t-35 104v285h-165v65h405v-65h-170v-285q0 -75 70 -75q11 0 21 2t18 5q9 4 16 8v-65q-8 -4 -19 -8q-9 -3 -21 -5t-25 -2z" />
    <glyph glyph-name="upsilon" unicode="&#x3c5;" 
d="M290 -10q-47 0 -85.5 15t-66.5 43t-43 66.5t-15 85.5v280h70v-280q0 -68 38 -106.5t102 -38.5t102 38.5t38 106.5v280h70v-280q0 -47 -15 -85.5t-43 -66.5t-66.5 -43t-85.5 -15z" />
    <glyph glyph-name="phi" unicode="&#x3c6;" horiz-adv-x="730" 
d="M330 -10q-64 2 -115.5 21.5t-88 52.5t-56.5 76.5t-20 94.5q0 45 14 84t38 70t55.5 53t67.5 33l25 -55q-57 -20 -93.5 -66.5t-36.5 -118.5q0 -79 54 -127.5t156 -52.5v425h70q64 0 115.5 -19.5t88 -52.5t56.5 -77.5t20 -95.5t-20 -94.5t-56.5 -76.5t-88 -52.5
t-115.5 -21.5v-200h-70v200zM400 55q102 4 156 52.5t54 127.5q0 39 -14 72t-40.5 57t-65.5 37.5t-90 13.5v-360z" />
    <glyph glyph-name="chi" unicode="&#x3c7;" horiz-adv-x="480" 
d="M195 250l-165 230h85l125 -175l125 175h85l-165 -230l180 -250h-85l-140 195l-140 -195h-85z" />
    <glyph glyph-name="psi" unicode="&#x3c8;" horiz-adv-x="720" 
d="M325 -10q-54 2 -99.5 21t-77.5 54.5t-50 85.5t-18 114v215h70v-210q0 -109 46 -160t129 -55v425h70v-425q83 4 129 55t46 160v210h70v-215q0 -64 -18 -114t-50 -85.5t-77.5 -54.5t-99.5 -21v-200h-70v200z" />
    <glyph glyph-name="omega" unicode="&#x3c9;" horiz-adv-x="820" 
d="M250 -10q-39 0 -74 16t-60.5 47.5t-40.5 78t-15 108.5q0 87 36.5 153.5t93.5 96.5l36 -54q-19 -12 -36.5 -30t-30.5 -42.5t-21 -55.5t-8 -68q0 -49 9.5 -84t26.5 -57.5t40 -33t49 -10.5t48 10t38 32t25 57t9 86v80h70v-80q0 -101 33.5 -143t86.5 -42q26 0 49 10.5t40 33
t26.5 57.5t9.5 84q0 37 -8 68t-21 55.5t-30.5 42.5t-36.5 30l36 54q57 -30 93.5 -96.5t36.5 -153.5q0 -62 -15 -108.5t-40.5 -78t-60.5 -47.5t-74 -16q-48 0 -78.5 16t-48.5 36q-21 23 -33 53q-12 -30 -33 -53q-18 -20 -49 -36t-78 -16z" />
    <glyph glyph-name="iotadieresis" unicode="&#x3ca;" horiz-adv-x="295" 
d="M20 585q-19 0 -32 13t-13 32t13 32t32 13t32 -13t13 -32t-13 -32t-32 -13zM210 585q-19 0 -32 13t-13 32t13 32t32 13t32 -13t13 -32t-13 -32t-32 -13zM210 -10q-60 0 -95 36t-35 104v350h70v-350q0 -75 70 -75q11 0 21 2t18 5q9 4 16 8v-65q-8 -4 -19 -8q-9 -3 -21 -5
t-25 -2z" />
    <glyph glyph-name="upsilondieresis" unicode="&#x3cb;" 
d="M290 -10q-47 0 -85.5 15t-66.5 43t-43 66.5t-15 85.5v280h70v-280q0 -68 38 -106.5t102 -38.5t102 38.5t38 106.5v280h70v-280q0 -47 -15 -85.5t-43 -66.5t-66.5 -43t-85.5 -15zM195 585q-19 0 -32 13t-13 32t13 32t32 13t32 -13t13 -32t-13 -32t-32 -13zM385 585
q-19 0 -32 13t-13 32t13 32t32 13t32 -13t13 -32t-13 -32t-32 -13z" />
    <glyph glyph-name="omicrontonos" unicode="&#x3cc;" 
d="M290 -10q-51 0 -95.5 19.5t-77.5 53t-52.5 79t-19.5 98.5q0 52 19.5 98t52.5 79.5t77.5 53t95.5 19.5t95.5 -19.5t77.5 -53t52.5 -79.5t19.5 -98q0 -53 -19.5 -98.5t-52.5 -79t-77.5 -53t-95.5 -19.5zM290 55q36 0 67.5 14t55.5 39t38 59t14 73t-14 73t-38 59t-55.5 39
t-67.5 14t-67.5 -14t-55.5 -39t-38 -59t-14 -73t14 -73t38 -58.5t55.5 -39t67.5 -14.5zM335 700h75l-95 -135h-55z" />
    <glyph glyph-name="upsilontonos" unicode="&#x3cd;" 
d="M290 -10q-47 0 -85.5 15t-66.5 43t-43 66.5t-15 85.5v280h70v-280q0 -68 38 -106.5t102 -38.5t102 38.5t38 106.5v280h70v-280q0 -47 -15 -85.5t-43 -66.5t-66.5 -43t-85.5 -15zM330 700h75l-95 -135h-55z" />
    <glyph glyph-name="omegatonos" unicode="&#x3ce;" horiz-adv-x="820" 
d="M250 -10q-39 0 -74 16t-60.5 47.5t-40.5 78t-15 108.5q0 87 36.5 153.5t93.5 96.5l36 -54q-19 -12 -36.5 -30t-30.5 -42.5t-21 -55.5t-8 -68q0 -49 9.5 -84t26.5 -57.5t40 -33t49 -10.5t48 10t38 32t25 57t9 86v80h70v-80q0 -101 33.5 -143t86.5 -42q26 0 49 10.5t40 33
t26.5 57.5t9.5 84q0 37 -8 68t-21 55.5t-30.5 42.5t-36.5 30l36 54q57 -30 93.5 -96.5t36.5 -153.5q0 -62 -15 -108.5t-40.5 -78t-60.5 -47.5t-74 -16q-48 0 -78.5 16t-48.5 36q-21 23 -33 53q-12 -30 -33 -53q-18 -20 -49 -36t-78 -16zM430 700h75l-95 -135h-55z" />
    <glyph glyph-name="uni0400" unicode="&#x400;" horiz-adv-x="640" 
d="M105 700h480v-70h-405v-230h325v-70h-325v-260h415v-70h-490v700zM240 930h75l75 -135h-55z" />
    <glyph glyph-name="uni0401" unicode="&#x401;" horiz-adv-x="640" 
d="M105 700h480v-70h-405v-230h325v-70h-325v-260h415v-70h-490v700zM250 810q-19 0 -32 13t-13 32t13 32t32 13t32 -13t13 -32t-13 -32t-32 -13zM440 810q-19 0 -32 13t-13 32t13 32t32 13t32 -13t13 -32t-13 -32t-32 -13z" />
    <glyph glyph-name="uni0402" unicode="&#x402;" horiz-adv-x="715" 
d="M425 60q72 0 113.5 43t41.5 122q0 75 -40.5 117.5t-104.5 42.5q-40 0 -72.5 -12.5t-56.5 -27.5q-28 -18 -51 -40v-305h-75v630h-180v70h435v-70h-180v-240q23 18 52 32q25 12 59.5 22.5t78.5 10.5q47 0 85.5 -15.5t66.5 -45t43 -72.5t15 -97t-16.5 -97.5t-46.5 -74
t-72.5 -47t-94.5 -16.5v70z" />
    <glyph glyph-name="uni0403" unicode="&#x403;" horiz-adv-x="550" 
d="M105 700h435v-70h-360v-630h-75v700zM370 930h75l-95 -135h-55z" />
    <glyph glyph-name="uni0404" unicode="&#x404;" horiz-adv-x="750" 
d="M420 -10q-75 0 -140.5 28t-114.5 77t-77 114.5t-28 140.5t28 140.5t77 114.5t114.5 77t140.5 28q72 0 125 -23t89 -50q41 -32 71 -72l-50 -45q-24 34 -58 60q-29 23 -73 41.5t-104 18.5q-58 0 -107 -19.5t-86 -53t-61 -79.5t-31 -98h370v-70h-370q6 -54 29 -101.5
t60.5 -83t87.5 -55.5t108 -20q60 0 105 18.5t75 41.5q35 26 60 60l50 -45q-31 -41 -74 -73q-37 -27 -90.5 -49.5t-125.5 -22.5z" />
    <glyph glyph-name="uni0405" unicode="&#x405;" horiz-adv-x="565" 
d="M280 -10q-60 0 -104.5 16t-73.5 36q-34 23 -57 53l45 51q19 -25 46 -43q23 -17 59 -30t85 -13q79 0 119.5 36.5t40.5 93.5q0 34 -16.5 55.5t-43 36.5t-60.5 25.5t-70 21.5t-70 24.5t-60.5 35t-43 53t-16.5 78.5q0 38 15.5 72.5t45 60.5t71 41.5t93.5 15.5q51 0 89 -14
t64 -31q30 -20 52 -45l-50 -50q-16 19 -39 35q-20 13 -48.5 24t-67.5 11q-36 0 -64 -10t-47 -26.5t-29 -38t-10 -45.5q0 -45 28 -69.5t70.5 -40.5t91.5 -29t91.5 -34.5t70.5 -58t28 -98.5q0 -43 -15.5 -79.5t-45.5 -63.5t-74 -42t-100 -15z" />
    <glyph glyph-name="uni0406" unicode="&#x406;" horiz-adv-x="285" 
d="M105 700h75v-700h-75v700z" />
    <glyph glyph-name="uni0407" unicode="&#x407;" horiz-adv-x="285" 
d="M105 700h75v-700h-75v700zM50 810q-19 0 -32 13t-13 32t13 32t32 13t32 -13t13 -32t-13 -32t-32 -13zM240 810q-19 0 -32 13t-13 32t13 32t32 13t32 -13t13 -32t-13 -32t-32 -13z" />
    <glyph glyph-name="uni0408" unicode="&#x408;" horiz-adv-x="495" 
d="M180 -10q-42 0 -73 12.5t-53 27.5q-26 18 -44 40l50 50q12 -17 30 -30q15 -11 37.5 -20.5t52.5 -9.5q64 0 102 38.5t38 106.5v495h75v-495q0 -47 -16 -86.5t-44.5 -68t-68 -44.5t-86.5 -16z" />
    <glyph glyph-name="uni0409" unicode="&#x409;" horiz-adv-x="1080" 
d="M60 -10q-26 0 -46 5q-11 2 -19 5v75q8 -3 18 -5q18 -5 37 -5q28 0 52 14.5t41 59.5t27 128.5t10 222.5v210h435v-260h180q49 0 90 -17t71 -46.5t47 -69.5t17 -87t-17 -87t-47 -69.5t-71 -46.5t-90 -17h-255v630h-285v-140q0 -106 -6 -184.5t-18 -134t-28.5 -91
t-38.5 -55.5t-48 -27.5t-56 -7.5zM795 70q68 0 109 41t41 109t-41 109t-109 41h-180v-300h180z" />
    <glyph glyph-name="uni040A" unicode="&#x40a;" horiz-adv-x="1080" 
d="M105 700h75v-260h360v260h75v-260h180q49 0 90 -17t71 -46.5t47 -69.5t17 -87t-17 -87t-47 -69.5t-71 -46.5t-90 -17h-255v370h-360v-370h-75v700zM795 70q68 0 109 41t41 109t-41 109t-109 41h-180v-300h180z" />
    <glyph glyph-name="uni040B" unicode="&#x40b;" horiz-adv-x="740" 
d="M180 630h-180v70h435v-70h-180v-240q23 18 52 32q25 12 59.5 22.5t78.5 10.5q47 0 85.5 -15.5t66.5 -43.5t43 -67.5t15 -88.5v-240h-75v240q0 32 -10.5 58.5t-30 46t-46 30t-58.5 10.5q-40 0 -72.5 -12.5t-56.5 -27.5q-28 -18 -51 -40v-305h-75v630z" />
    <glyph glyph-name="uni040C" unicode="&#x40c;" horiz-adv-x="670" 
d="M105 700h75v-395l360 395h95l-265 -290l290 -410h-90l-250 355l-140 -150v-205h-75v700zM400 930h75l-95 -135h-55z" />
    <glyph glyph-name="uni040D" unicode="&#x40d;" horiz-adv-x="780" 
d="M105 700h75v-565l430 565h65v-700h-75v565l-430 -565h-65v700zM275 930h75l75 -135h-55z" />
    <glyph glyph-name="uni040E" unicode="&#x40e;" horiz-adv-x="610" 
d="M130 -10q-26 0 -46 5q-11 2 -19 5v70q7 -3 17 -5q18 -5 43 -5q24 0 42.5 5.5t33.5 17.5t28 30t26 42l30 55q-65 123 -130.5 245t-129.5 245h80l220 -410l190 410h80l-260 -545q-21 -43 -41.5 -74t-44.5 -51.5t-53 -30t-66 -9.5zM310 795q-60 0 -97.5 37.5t-37.5 97.5h55
q0 -34 23 -57t57 -23t57 23t23 57h55q0 -60 -37.5 -97.5t-97.5 -37.5z" />
    <glyph glyph-name="uni040F" unicode="&#x40f;" horiz-adv-x="745" 
d="M335 0h-230v700h75v-630h385v630h75v-700h-230v-150h-75v150z" />
    <glyph glyph-name="uni0410" unicode="&#x410;" horiz-adv-x="690" 
d="M310 700h70l290 -700h-80l-80 195h-330l-80 -195h-80zM480 265l-135 330l-135 -330h270z" />
    <glyph glyph-name="uni0411" unicode="&#x411;" horiz-adv-x="655" 
d="M105 700h435v-70h-360v-210h195q47 0 87 -16.5t69.5 -45t46.5 -67t17 -81.5t-17 -81.5t-46.5 -67t-69.5 -45t-87 -16.5h-270v700zM375 70q32 0 58.5 10.5t46 29.5t30 44.5t10.5 55.5t-10.5 55.5t-30 44.5t-46 29.5t-58.5 10.5h-195v-280h195z" />
    <glyph glyph-name="uni0412" unicode="&#x412;" horiz-adv-x="665" 
d="M105 700h270q43 0 79 -14t61.5 -38.5t40 -57.5t14.5 -70q0 -42 -12.5 -69.5t-27.5 -44.5q-18 -20 -40 -31q31 -15 57 -39q22 -21 40 -54t18 -82q0 -43 -15.5 -79.5t-43.5 -63.5t-67.5 -42t-88.5 -15h-285v700zM390 70q64 0 102 36.5t38 93.5q0 28 -10 53.5t-28 44.5
t-44 30.5t-58 11.5h-210v-270h210zM375 406q57 0 88.5 30.5t31.5 83.5q0 49 -31.5 79.5t-88.5 30.5h-195v-224h195z" />
    <glyph glyph-name="uni0413" unicode="&#x413;" horiz-adv-x="550" 
d="M105 700h435v-70h-360v-630h-75v700z" />
    <glyph glyph-name="uni0414" unicode="&#x414;" horiz-adv-x="710" 
d="M0 70h40q35 36 62 94q23 50 43 129.5t20 196.5v210h430v-630h85v-220h-75v150h-530v-150h-75v220zM520 70v560h-280v-140q0 -115 -18.5 -194t-41.5 -130q-26 -59 -60 -96h400z" />
    <glyph glyph-name="uni0415" unicode="&#x415;" horiz-adv-x="640" 
d="M105 700h480v-70h-405v-230h325v-70h-325v-260h415v-70h-490v700z" />
    <glyph glyph-name="uni0416" unicode="&#x416;" horiz-adv-x="965" 
d="M300 410l-265 290h95l315 -344v344h75v-344l315 344h95l-265 -290l290 -410h-90l-250 355l-95 -100v-255h-75v255l-95 100l-250 -355h-90z" />
    <glyph glyph-name="uni0417" unicode="&#x417;" horiz-adv-x="595" 
d="M280 -10q-63 0 -109 17t-78 38q-37 24 -63 55l50 50q21 -26 51 -45q26 -17 63 -31t86 -14q43 0 76.5 11t56.5 30t35 43.5t12 50.5q0 28 -12 53.5t-35 44.5t-56.5 30.5t-76.5 11.5h-80v70h80q37 0 66 9.5t49 25.5t30 36.5t10 43.5q0 24 -10 46t-30 38.5t-49 26t-66 9.5
q-42 0 -74 -12.5t-55 -27.5q-26 -18 -46 -40l-50 50q25 28 58 50q29 19 70.5 34.5t96.5 15.5q54 0 97 -15t72.5 -40t45 -59t15.5 -71q0 -45 -18.5 -75t-41.5 -48q-26 -21 -60 -32q40 -12 72 -35q27 -20 50 -53.5t23 -86.5q0 -39 -18 -76t-51.5 -65.5t-80.5 -46t-105 -17.5z
" />
    <glyph glyph-name="uni0418" unicode="&#x418;" horiz-adv-x="780" 
d="M105 700h75v-565l430 565h65v-700h-75v565l-430 -565h-65v700z" />
    <glyph glyph-name="uni0419" unicode="&#x419;" horiz-adv-x="780" 
d="M105 700h75v-565l430 565h65v-700h-75v565l-430 -565h-65v700zM390 795q-60 0 -97.5 37.5t-37.5 97.5h55q0 -34 23 -57t57 -23t57 23t23 57h55q0 -60 -37.5 -97.5t-97.5 -37.5z" />
    <glyph glyph-name="uni041A" unicode="&#x41a;" horiz-adv-x="670" 
d="M105 700h75v-395l360 395h95l-265 -290l290 -410h-90l-250 355l-140 -150v-205h-75v700z" />
    <glyph glyph-name="uni041B" unicode="&#x41b;" horiz-adv-x="735" 
d="M60 -10q-26 0 -46 5q-11 2 -19 5v75q8 -3 18 -5q18 -5 37 -5q28 0 52 14.5t41 59.5t27 128.5t10 222.5v210h450v-700h-75v630h-300v-140q0 -106 -6 -184.5t-18 -134t-28.5 -91t-38.5 -55.5t-48 -27.5t-56 -7.5z" />
    <glyph glyph-name="uni041C" unicode="&#x41c;" horiz-adv-x="920" 
d="M105 700h65l290 -380l290 380h65v-700h-75v570l-280 -370l-280 370v-570h-75v700z" />
    <glyph glyph-name="uni041D" unicode="&#x41d;" horiz-adv-x="750" 
d="M105 700h75v-310h390v310h75v-700h-75v320h-390v-320h-75v700z" />
    <glyph glyph-name="uni041E" unicode="&#x41e;" horiz-adv-x="840" 
d="M420 -10q-75 0 -140.5 28t-114.5 77t-77 114.5t-28 140.5t28 140.5t77 114.5t114.5 77t140.5 28t140.5 -28t114.5 -77t77 -114.5t28 -140.5t-28 -140.5t-77 -114.5t-114.5 -77t-140.5 -28zM420 60q60 0 112 22t90.5 61t60.5 92t22 115t-22 115t-60.5 92t-90.5 61t-112 22
t-112 -22t-90.5 -61t-60.5 -92t-22 -115t22 -115t60.5 -92t90.5 -61t112 -22z" />
    <glyph glyph-name="uni041F" unicode="&#x41f;" horiz-adv-x="750" 
d="M105 700h540v-700h-75v630h-390v-630h-75v700z" />
    <glyph glyph-name="uni0420" unicode="&#x420;" horiz-adv-x="650" 
d="M105 700h265q49 0 90 -17t71 -46.5t47 -69.5t17 -87t-17 -87t-47 -69.5t-71 -46.5t-90 -17h-190v-260h-75v700zM370 330q68 0 109 41t41 109t-41 109t-109 41h-190v-300h190z" />
    <glyph glyph-name="uni0421" unicode="&#x421;" horiz-adv-x="750" 
d="M420 -10q-75 0 -140.5 28t-114.5 77t-77 114.5t-28 140.5t28 140.5t77 114.5t114.5 77t140.5 28q72 0 125 -23t89 -50q41 -32 71 -72l-50 -45q-24 34 -58 60q-29 23 -73 41.5t-104 18.5t-112 -22t-90.5 -61t-60.5 -92t-22 -115t22 -115t60.5 -92t90.5 -61t112 -22
t105 18.5t75 41.5q35 26 60 60l50 -45q-31 -41 -74 -73q-37 -27 -90.5 -49.5t-125.5 -22.5z" />
    <glyph glyph-name="uni0422" unicode="&#x422;" horiz-adv-x="555" 
d="M240 630h-220v70h515v-70h-220v-630h-75v630z" />
    <glyph glyph-name="uni0423" unicode="&#x423;" horiz-adv-x="610" 
d="M130 -10q-26 0 -46 5q-11 2 -19 5v70q7 -3 17 -5q18 -5 43 -5q24 0 42.5 5.5t33.5 17.5t28 30t26 42l30 55q-65 123 -130.5 245t-129.5 245h80l220 -410l190 410h80l-260 -545q-21 -43 -41.5 -74t-44.5 -51.5t-53 -30t-66 -9.5z" />
    <glyph glyph-name="uni0424" unicode="&#x424;" horiz-adv-x="845" 
d="M385 75q-77 2 -138 25t-104 61.5t-65.5 89.5t-22.5 109t22.5 109t65.5 89.5t104 61.5t138 25v75h75v-75q77 -2 138 -25t104 -61.5t65.5 -89.5t22.5 -109t-22.5 -109t-65.5 -89.5t-104 -61.5t-138 -25v-95h-75v95zM385 575q-62 -2 -109.5 -19t-80 -45.5t-49 -67
t-16.5 -83.5t16.5 -83.5t49 -67t80 -45.5t109.5 -19v430zM460 145q62 2 109.5 19t80 45.5t49 67t16.5 83.5t-16.5 83.5t-49 67t-80 45.5t-109.5 19v-430z" />
    <glyph glyph-name="uni0425" unicode="&#x425;" horiz-adv-x="650" 
d="M280 365l-240 335h90l195 -275l195 275h90l-240 -335l260 -365h-90l-215 305l-215 -305h-90z" />
    <glyph glyph-name="uni0426" unicode="&#x426;" horiz-adv-x="755" 
d="M650 0h-545v700h75v-630h380v630h75v-630h90v-220h-75v150z" />
    <glyph glyph-name="uni0427" unicode="&#x427;" horiz-adv-x="705" 
d="M525 305q-23 -17 -52 -30q-25 -11 -60 -20.5t-78 -9.5q-55 0 -99.5 17t-75.5 48.5t-48 77t-17 102.5v210h75v-210q0 -85 46 -130t129 -45q43 0 76.5 11.5t56.5 25.5q27 17 47 38v310h75v-700h-75v305z" />
    <glyph glyph-name="uni0428" unicode="&#x428;" horiz-adv-x="1015" 
d="M105 700h75v-630h290v630h75v-630h290v630h75v-700h-805v700z" />
    <glyph glyph-name="uni0429" unicode="&#x429;" horiz-adv-x="1030" 
d="M925 0h-820v700h75v-630h290v630h75v-630h290v630h75v-630h90v-220h-75v150z" />
    <glyph glyph-name="uni042A" unicode="&#x42a;" horiz-adv-x="710" 
d="M170 630h-170v70h245v-260h180q49 0 90 -17t71 -46.5t47 -69.5t17 -87t-17 -87t-47 -69.5t-71 -46.5t-90 -17h-255v630zM425 70q68 0 109 41t41 109t-41 109t-109 41h-180v-300h180z" />
    <glyph glyph-name="uni042B" unicode="&#x42b;" horiz-adv-x="885" 
d="M105 700h75v-260h180q49 0 90 -17t71 -46.5t47 -69.5t17 -87t-17 -87t-47 -69.5t-71 -46.5t-90 -17h-255v700zM360 70q68 0 109 41t41 109t-41 109t-109 41h-180v-300h180zM705 700h75v-700h-75v700z" />
    <glyph glyph-name="uni042C" unicode="&#x42c;" horiz-adv-x="655" 
d="M105 700h75v-260h190q49 0 90 -17t71 -46.5t47 -69.5t17 -87t-17 -87t-47 -69.5t-71 -46.5t-90 -17h-265v700zM370 70q68 0 109 41t41 109t-41 109t-109 41h-190v-300h190z" />
    <glyph glyph-name="uni042D" unicode="&#x42d;" horiz-adv-x="745" 
d="M325 -10q-72 0 -125.5 22.5t-90.5 49.5q-43 32 -74 73l50 45q25 -34 60 -60q30 -23 75 -41.5t105 -18.5q58 0 107.5 20t87 55.5t61 83t29.5 101.5h-370v70h370q-8 52 -31.5 98t-60.5 79.5t-86 53t-107 19.5q-60 0 -104 -18.5t-73 -41.5q-34 -26 -58 -60l-50 45
q29 40 71 72q35 27 88.5 50t125.5 23q75 0 140.5 -28t114.5 -77t77 -114.5t28 -140.5t-28 -140.5t-77 -114.5t-114.5 -77t-140.5 -28z" />
    <glyph glyph-name="uni042E" unicode="&#x42e;" horiz-adv-x="1055" 
d="M655 -10q-68 0 -127 25.5t-104.5 70t-74 105t-34.5 129.5h-135v-320h-75v700h75v-310h135q7 66 36 124t74 101.5t103.5 69t126.5 25.5q69 0 131 -27.5t108.5 -75.5t73.5 -114t27 -143t-27 -143t-73.5 -114t-108.5 -75.5t-131 -27.5zM655 60q54 0 102.5 21.5t84.5 60
t57 91.5t21 117t-21 117t-57 91.5t-84.5 60t-102.5 21.5t-102.5 -21.5t-84.5 -60t-57 -91.5t-21 -117t21 -117t57 -91.5t84.5 -60t102.5 -21.5z" />
    <glyph glyph-name="uni042F" unicode="&#x42f;" horiz-adv-x="670" 
d="M215 290q-41 14 -73 40q-27 23 -49.5 61.5t-22.5 98.5q0 45 16 83.5t44.5 66.5t68 44t86.5 16h280v-700h-75v280h-200l-155 -280h-85zM490 350v280h-205q-64 0 -102 -38t-38 -102t38 -102t102 -38h205z" />
    <glyph glyph-name="uni0430" unicode="&#x430;" horiz-adv-x="520" 
d="M215 -10q-38 0 -69 12t-53.5 31.5t-35 45t-12.5 51.5q0 60 36 97t104 48l185 30q0 53 -33.5 86.5t-86.5 33.5q-32 0 -57 -11t-42 -24q-20 -16 -36 -35l-45 45q20 25 47 45q23 17 56 31t77 14q41 0 76 -14t60.5 -39t39.5 -59t14 -73v-305h-70v65q-15 -21 -38 -38
q-20 -14 -49 -25.5t-68 -11.5zM215 55q34 0 62.5 11.5t49 32.5t32 50.5t11.5 65.5v30l-165 -30q-90 -17 -90 -85q0 -30 25.5 -52.5t74.5 -22.5z" />
    <glyph glyph-name="uni0431" unicode="&#x431;" horiz-adv-x="585" 
d="M300 -10q-51 0 -94.5 19.5t-76 58.5t-51 97t-18.5 135q0 92 18.5 158.5t51.5 111.5t77.5 70.5t97.5 34.5q45 8 76 17.5t51 17.5q23 10 38 20l35 -55q-13 -10 -39 -21q-22 -10 -58 -21.5t-93 -22.5q-38 -8 -70 -25.5t-56 -47t-38 -70t-16 -92.5q17 26 42 47q21 18 52.5 33
t75.5 15q47 0 88.5 -18.5t73 -51t50 -76t18.5 -94.5t-18.5 -94.5t-50.5 -76t-74.5 -51t-91.5 -18.5zM300 55q34 0 64 13.5t52.5 36.5t35.5 55t13 70q0 37 -13 69.5t-35.5 55.5t-52.5 36.5t-64 13.5t-64 -13.5t-52.5 -36.5t-35.5 -55.5t-13 -69.5q0 -38 13 -70t35.5 -55
t52.5 -36.5t64 -13.5z" />
    <glyph glyph-name="uni0432" unicode="&#x432;" horiz-adv-x="515" 
d="M80 480h220q68 0 106.5 -36t38.5 -89q0 -26 -9.5 -45t-20.5 -31q-13 -14 -30 -24q22 -7 40 -22q15 -13 27.5 -35.5t12.5 -57.5q0 -64 -40 -102t-115 -38h-230v480zM310 65q42 0 63.5 21t21.5 59t-21.5 59t-63.5 21h-160v-160h160zM300 285q38 0 56.5 17.5t18.5 47.5
t-18.5 47.5t-56.5 17.5h-150v-130h150z" />
    <glyph glyph-name="uni0433" unicode="&#x433;" horiz-adv-x="410" 
d="M80 480h320v-65h-250v-415h-70v480z" />
    <glyph glyph-name="uni0434" unicode="&#x434;" horiz-adv-x="555" 
d="M0 65h35q24 26 42 66q16 34 29.5 85.5t13.5 123.5v140h330v-415h75v-185h-70v120h-385v-120h-70v185zM380 65v350h-190v-75q0 -69 -12.5 -120.5t-27.5 -86.5q-18 -40 -40 -68h270z" />
    <glyph glyph-name="uni0435" unicode="&#x435;" horiz-adv-x="555" 
d="M285 -10q-49 0 -92.5 19.5t-76.5 53t-52 79t-19 98.5q0 52 19 98t51.5 79.5t75 53t89.5 19.5q49 0 91 -18t73 -49.5t48.5 -76t17.5 -96.5q0 -8 -1 -14.5t-2 -11.5q-1 -6 -2 -10l-390 1q2 -32 16 -61t37 -51t53 -35t64 -13q38 0 66.5 12.5t48.5 27.5q23 18 40 40l45 -45
q-21 -28 -51 -50q-26 -19 -63 -34.5t-86 -15.5zM440 275q-4 32 -17.5 59.5t-34.5 47.5t-48.5 31.5t-59.5 11.5t-60.5 -12t-50.5 -33t-36 -48t-18 -57h325z" />
    <glyph glyph-name="uni0436" unicode="&#x436;" horiz-adv-x="730" 
d="M215 285l-185 195h85l215 -230v230h70v-230l215 230h85l-185 -195l205 -285h-80l-170 235l-70 -75v-160h-70v160l-70 75l-170 -235h-80z" />
    <glyph glyph-name="uni0437" unicode="&#x437;" horiz-adv-x="440" 
d="M205 -10q-45 0 -78.5 13t-56.5 29q-26 18 -45 43l45 45q16 -19 36 -33q17 -12 42 -22t57 -10q60 0 87.5 23t27.5 57t-27.5 57t-87.5 23h-55v65h55q45 0 70 22.5t25 52.5t-23 50t-72 20q-29 0 -50.5 -8.5t-37.5 -19.5q-18 -12 -32 -27l-50 50q18 19 44 35q22 13 53 24
t73 11q37 0 67.5 -11.5t52.5 -30t33.5 -43t11.5 -50.5q0 -32 -12 -53t-26 -32q-17 -14 -37 -20q26 -6 47 -20q18 -12 33 -34.5t15 -60.5q0 -28 -11.5 -54t-34.5 -46.5t-57.5 -32.5t-81.5 -12z" />
    <glyph glyph-name="uni0438" unicode="&#x438;" 
d="M80 480h70v-360l290 360h60v-480h-70v360l-290 -360h-60v480z" />
    <glyph glyph-name="uni0439" unicode="&#x439;" 
d="M80 480h70v-360l290 360h60v-480h-70v360l-290 -360h-60v480zM290 565q-60 0 -97.5 37.5t-37.5 97.5h55q0 -42 21 -63.5t59 -21.5t59 21.5t21 63.5h55q0 -60 -37.5 -97.5t-97.5 -37.5z" />
    <glyph glyph-name="uni043A" unicode="&#x43a;" horiz-adv-x="505" 
d="M80 480h70v-255l240 255h85l-185 -195l205 -285h-80l-170 235l-95 -100v-135h-70v480z" />
    <glyph glyph-name="uni043B" unicode="&#x43b;" horiz-adv-x="560" 
d="M50 -10q-20 0 -35 5q-8 2 -15 5v70q5 -3 12 -5q12 -5 28 -5q21 0 37.5 9.5t28 39t18 84.5t6.5 147v140h350v-480h-70v415h-210v-75q0 -109 -11 -177t-30.5 -106.5t-47 -52.5t-61.5 -14z" />
    <glyph glyph-name="uni043C" unicode="&#x43c;" horiz-adv-x="650" 
d="M80 480h55l190 -240l190 240h55v-480h-70v355l-175 -220l-175 220v-355h-70v480z" />
    <glyph glyph-name="uni043D" unicode="&#x43d;" horiz-adv-x="575" 
d="M80 480h70v-205h275v205h70v-480h-70v210h-275v-210h-70v480z" />
    <glyph glyph-name="uni043E" unicode="&#x43e;" 
d="M290 -10q-51 0 -95.5 19.5t-77.5 53t-52.5 79t-19.5 98.5q0 52 19.5 98t52.5 79.5t77.5 53t95.5 19.5t95.5 -19.5t77.5 -53t52.5 -79.5t19.5 -98q0 -53 -19.5 -98.5t-52.5 -79t-77.5 -53t-95.5 -19.5zM290 55q36 0 67.5 14t55.5 39t38 59t14 73t-14 73t-38 59t-55.5 39
t-67.5 14t-67.5 -14t-55.5 -39t-38 -59t-14 -73t14 -73t38 -58.5t55.5 -39t67.5 -14.5z" />
    <glyph glyph-name="uni043F" unicode="&#x43f;" horiz-adv-x="575" 
d="M80 480h415v-480h-70v414h-275v-414h-70v480z" />
    <glyph glyph-name="uni0440" unicode="&#x440;" horiz-adv-x="595" 
d="M80 480h70v-70q16 22 41 40q20 15 51 27.5t73 12.5q49 0 91.5 -18.5t74.5 -52t50.5 -79.5t18.5 -100t-18.5 -100t-50.5 -79.5t-74.5 -52t-91.5 -18.5q-42 0 -73 12.5t-51 27.5q-25 18 -41 40v-280h-70v690zM315 55q34 0 64 13.5t52.5 38t35.5 58.5t13 75t-13 75
t-35.5 58.5t-52.5 38t-64 13.5q-32 0 -61.5 -14t-52.5 -39t-37 -59t-14 -73t14 -73t37 -59t52.5 -39t61.5 -14z" />
    <glyph glyph-name="uni0441" unicode="&#x441;" horiz-adv-x="515" 
d="M285 -10q-49 0 -92.5 19.5t-76.5 53t-52 79t-19 98.5q0 52 19 98t52 79.5t76.5 53t92.5 19.5q47 0 83 -15t61 -33q29 -21 51 -47l-50 -50q-16 22 -37 40q-18 15 -45.5 27.5t-62.5 12.5q-34 0 -64.5 -14t-54 -39t-37.5 -59t-14 -73t14 -73t37.5 -59t54 -39t64.5 -14
q35 0 63 12.5t48 27.5q23 18 39 40l50 -45q-23 -28 -53 -50q-26 -19 -63 -34.5t-84 -15.5z" />
    <glyph glyph-name="uni0442" unicode="&#x442;" horiz-adv-x="450" 
d="M190 415h-170v65h410v-65h-170v-415h-70v415z" />
    <glyph glyph-name="uni0443" unicode="&#x443;" horiz-adv-x="490" 
d="M105 -210q-25 0 -43 5q-10 2 -17 5v65q8 -3 16 -5q15 -5 34 -5q34 0 55 18.5t35 56.5l25 70l-195 480h75l155 -390l155 390h75l-220 -550q-30 -75 -64 -107.5t-86 -32.5z" />
    <glyph glyph-name="uni0444" unicode="&#x444;" horiz-adv-x="710" 
d="M320 -10q-62 0 -112.5 19.5t-86.5 53t-56 79t-20 98.5q0 52 20 98t56 79.5t86.5 53t112.5 19.5v210h70v-210q62 0 112.5 -19.5t86.5 -53t56 -79.5t20 -98q0 -53 -20 -98.5t-56 -79t-86.5 -53t-112.5 -19.5v-200h-70v200zM320 425q-47 0 -85 -14t-64.5 -39t-41 -59
t-14.5 -73q0 -40 14.5 -74t41 -58.5t64.5 -38.5t85 -14v370zM390 55q47 0 85 14t64.5 38.5t41 58.5t14.5 74q0 39 -14.5 73t-41 59t-64.5 39t-85 14v-370z" />
    <glyph glyph-name="uni0445" unicode="&#x445;" horiz-adv-x="480" 
d="M195 250l-165 230h85l125 -175l125 175h85l-165 -230l180 -250h-85l-140 195l-140 -195h-85z" />
    <glyph glyph-name="uni0446" unicode="&#x446;" horiz-adv-x="590" 
d="M490 0h-410v480h70v-415h265v415h70v-415h75v-185h-70v120z" />
    <glyph glyph-name="uni0447" unicode="&#x447;" horiz-adv-x="540" 
d="M390 195q-17 -11 -38 -20q-18 -8 -42.5 -14t-54.5 -6q-41 0 -75 13.5t-58.5 38t-38 58.5t-13.5 75v140h70v-140q0 -53 33.5 -86.5t86.5 -33.5q30 0 54 7t41 15q19 10 35 23v215h70v-480h-70v195z" />
    <glyph glyph-name="uni0448" unicode="&#x448;" horiz-adv-x="780" 
d="M80 480h70v-415h205v415h71v-415h204v415h70v-480h-620v480z" />
    <glyph glyph-name="uni0449" unicode="&#x449;" horiz-adv-x="805" 
d="M705 0h-625v480h70v-415h205v415h71v-415h204v415h70v-415h75v-185h-70v120z" />
    <glyph glyph-name="uni044A" unicode="&#x44a;" horiz-adv-x="535" 
d="M125 415h-125v65h195v-160h120q83 0 129 -44t46 -116t-46 -116t-128 -44h-191v415zM316 65q48 0 76 26.5t28 68.5t-28 68.5t-77 26.5h-120v-190h121z" />
    <glyph glyph-name="uni044B" unicode="&#x44b;" horiz-adv-x="685" 
d="M80 480h70v-160h120q83 0 129 -44t46 -116t-46 -116t-128 -44h-191v480zM271 65q48 0 76 26.5t28 68.5t-28 68.5t-77 26.5h-120v-190h121zM535 480h70v-480h-70v480z" />
    <glyph glyph-name="uni044C" unicode="&#x44c;" horiz-adv-x="495" 
d="M80 480h70v-160h125q83 0 129 -44t46 -116t-46 -116t-128 -44h-196v480zM276 65q48 0 76 26.5t28 68.5t-28 68.5t-77 26.5h-125v-190h126z" />
    <glyph glyph-name="uni044D" unicode="&#x44d;" horiz-adv-x="510" 
d="M225 -10q-48 0 -84.5 15.5t-62.5 34.5q-30 22 -53 50l50 45q16 -22 39 -40q20 -15 47.5 -27.5t63.5 -12.5q32 0 61 13t52 35t38 51t19 61h-240v65h235q-4 28 -18 54t-36 46.5t-50.5 32.5t-60.5 12q-36 0 -63 -12.5t-45 -27.5q-21 -18 -37 -40l-50 50q22 26 51 47
q25 18 60.5 33t83.5 15q49 0 92.5 -19.5t76.5 -53t52 -79.5t19 -98q0 -53 -19 -98.5t-52 -79t-76.5 -53t-92.5 -19.5z" />
    <glyph glyph-name="uni044E" unicode="&#x44e;" horiz-adv-x="780" 
d="M495 -10q-47 0 -88 17.5t-73 47.5t-52.5 70t-26.5 85h-105v-210h-70v480h70v-205h105q6 43 26.5 82t52.5 68.5t73 47t88 17.5q49 0 92.5 -19.5t76.5 -53t52 -79.5t19 -98q0 -53 -19 -98.5t-52 -79t-76.5 -53t-92.5 -19.5zM495 55q34 0 64.5 14t54 39t37.5 59t14 73
t-14 73t-37.5 59t-54 39t-64.5 14t-64.5 -14t-54 -39t-37.5 -59t-14 -73t14 -73t37.5 -59t54 -39t64.5 -14z" />
    <glyph glyph-name="uni044F" unicode="&#x44f;" horiz-adv-x="510" 
d="M150 175q-28 9 -50 27q-19 16 -34.5 44.5t-15.5 73.5q0 34 12.5 63t35.5 50.5t55.5 34t71.5 12.5h205v-480h-70v160h-140l-100 -160h-80zM360 225v190h-135q-49 0 -77 -26.5t-28 -68.5t28 -68.5t77 -26.5h135z" />
    <glyph glyph-name="uni0450" unicode="&#x450;" horiz-adv-x="555" 
d="M285 -10q-49 0 -92.5 19.5t-76.5 53t-52 79t-19 98.5q0 52 19 98t51.5 79.5t75 53t89.5 19.5q49 0 91 -18t73 -49.5t48.5 -76t17.5 -96.5q0 -8 -1 -14.5t-2 -11.5q-1 -6 -2 -10l-390 1q2 -32 16 -61t37 -51t53 -35t64 -13q38 0 66.5 12.5t48.5 27.5q23 18 40 40l45 -45
q-21 -28 -51 -50q-26 -19 -63 -34.5t-86 -15.5zM440 275q-4 32 -17.5 59.5t-34.5 47.5t-48.5 31.5t-59.5 11.5t-60.5 -12t-50.5 -33t-36 -48t-18 -57h325zM155 700h75l75 -135h-55z" />
    <glyph glyph-name="uni0451" unicode="&#x451;" horiz-adv-x="555" 
d="M285 -10q-49 0 -92.5 19.5t-76.5 53t-52 79t-19 98.5q0 52 19 98t51.5 79.5t75 53t89.5 19.5q49 0 91 -18t73 -49.5t48.5 -76t17.5 -96.5q0 -8 -1 -14.5t-2 -11.5q-1 -6 -2 -10l-390 1q2 -32 16 -61t37 -51t53 -35t64 -13q38 0 66.5 12.5t48.5 27.5q23 18 40 40l45 -45
q-21 -28 -51 -50q-26 -19 -63 -34.5t-86 -15.5zM440 275q-4 32 -17.5 59.5t-34.5 47.5t-48.5 31.5t-59.5 11.5t-60.5 -12t-50.5 -33t-36 -48t-18 -57h325zM185 585q-19 0 -32 13t-13 32t13 32t32 13t32 -13t13 -32t-13 -32t-32 -13zM375 585q-19 0 -32 13t-13 32t13 32
t32 13t32 -13t13 -32t-13 -32t-32 -13z" />
    <glyph glyph-name="uni0452" unicode="&#x452;" 
d="M305 55q32 0 59.5 12t47.5 34.5t31.5 55t11.5 73.5q0 37 -11.5 67.5t-30.5 52.5t-44.5 33.5t-53.5 11.5q-32 0 -59.5 -11.5t-47.5 -32.5t-31.5 -50.5t-11.5 -65.5v-235h-70v545h-85v65h85v90h70v-90h140v-65h-140v-165q15 22 38 40q20 15 48.5 27.5t68.5 12.5
q43 0 80.5 -16.5t65 -46.5t43.5 -72.5t16 -94.5q0 -54 -17 -98.5t-46.5 -76t-69.5 -48.5t-87 -17v65z" />
    <glyph glyph-name="uni0453" unicode="&#x453;" horiz-adv-x="410" 
d="M80 480h320v-65h-250v-415h-70v480zM280 700h75l-95 -135h-55z" />
    <glyph glyph-name="uni0454" unicode="&#x454;" horiz-adv-x="515" 
d="M285 -10q-49 0 -92.5 19.5t-76.5 53t-52 79t-19 98.5q0 52 19 98t52 79.5t76.5 53t92.5 19.5q47 0 83 -15t61 -33q29 -21 51 -47l-50 -50q-16 22 -37 40q-18 15 -45.5 27.5t-62.5 12.5q-32 0 -60.5 -12t-50.5 -32.5t-36 -46.5t-18 -54h235v-65h-240q4 -32 19 -61t38 -51
t52 -35t61 -13q35 0 63 12.5t48 27.5q23 18 39 40l50 -45q-23 -28 -53 -50q-26 -19 -63 -34.5t-84 -15.5z" />
    <glyph glyph-name="uni0455" unicode="&#x455;" horiz-adv-x="430" 
d="M210 -10q-45 0 -78 13t-55 29q-26 18 -42 43l50 50q14 -20 32 -35q16 -14 39.5 -24.5t53.5 -10.5q53 0 79 23t26 57q0 27 -19.5 43t-48 26.5t-62.5 20t-62.5 24.5t-48 40t-19.5 66q0 26 11.5 50.5t32.5 43t50.5 30t65.5 11.5q38 0 66.5 -10.5t48.5 -22.5q23 -14 40 -32
l-50 -50q-11 14 -26 25q-14 9 -33.5 17t-45.5 8q-41 0 -65.5 -22t-24.5 -48t19.5 -41t48 -25t62.5 -19.5t62.5 -25t48 -41.5t19.5 -68q0 -30 -12 -56.5t-34.5 -46t-55 -31t-73.5 -11.5z" />
    <glyph glyph-name="uni0456" unicode="&#x456;" horiz-adv-x="230" 
d="M80 480h70v-480h-70v480zM115 595q-19 0 -32 13t-13 32t13 32t32 13t32 -13t13 -32t-13 -32t-32 -13z" />
    <glyph glyph-name="uni0457" unicode="&#x457;" horiz-adv-x="230" 
d="M80 480h70v-480h-70v480zM20 585q-19 0 -32 13t-13 32t13 32t32 13t32 -13t13 -32t-13 -32t-32 -13zM210 585q-19 0 -32 13t-13 32t13 32t32 13t32 -13t13 -32t-13 -32t-32 -13z" />
    <glyph glyph-name="uni0458" unicode="&#x458;" horiz-adv-x="230" 
d="M20 -210q-14 0 -24.5 2t-18.5 5q-10 4 -17 8v65q7 -4 16 -8q17 -7 39 -7q30 0 47.5 18.5t17.5 56.5v550h70v-550q0 -140 -130 -140zM115 595q-19 0 -32 13t-13 32t13 32t32 13t32 -13t13 -32t-13 -32t-32 -13z" />
    <glyph glyph-name="uni0459" unicode="&#x459;" horiz-adv-x="805" 
d="M50 -10q-20 0 -35 5q-8 2 -15 5v70q5 -3 12 -5q12 -5 28 -5q21 0 37.5 9.5t28 39t18 84.5t6.5 147v140h335v-180h120q87 0 131 -41t44 -109t-44 -109t-130 -41h-191v415h-195v-75q0 -109 -11 -177t-30.5 -106.5t-47 -52.5t-61.5 -14zM586 65q52 0 78 23.5t26 61.5
t-26 61.5t-79 23.5h-120v-170h121z" />
    <glyph glyph-name="uni045A" unicode="&#x45a;" horiz-adv-x="815" 
d="M80 480h70v-180h255v180h70v-180h120q87 0 131 -41t44 -109t-44 -109t-130 -41h-191v235h-255v-235h-70v480zM596 65q52 0 78 23.5t26 61.5t-26 61.5t-79 23.5h-120v-170h121z" />
    <glyph glyph-name="uni045B" unicode="&#x45b;" horiz-adv-x="595" 
d="M95 545h-85v65h85v90h70v-90h140v-65h-140v-165q15 22 38 40q20 15 48.5 27.5t68.5 12.5q43 0 79 -14.5t61.5 -41t40 -64.5t14.5 -85v-255h-70v255q0 64 -36.5 102t-93.5 38q-32 0 -59.5 -11.5t-47.5 -32.5t-31.5 -50.5t-11.5 -65.5v-235h-70v545z" />
    <glyph glyph-name="uni045C" unicode="&#x45c;" horiz-adv-x="505" 
d="M80 480h70v-255l240 255h85l-185 -195l205 -285h-80l-170 235l-95 -100v-135h-70v480zM310 700h75l-95 -135h-55z" />
    <glyph glyph-name="uni045D" unicode="&#x45d;" 
d="M80 480h70v-360l290 360h60v-480h-70v360l-290 -360h-60v480zM180 700h75l75 -135h-55z" />
    <glyph glyph-name="uni045E" unicode="&#x45e;" horiz-adv-x="490" 
d="M105 -210q-25 0 -43 5q-10 2 -17 5v65q8 -3 16 -5q15 -5 34 -5q34 0 55 18.5t35 56.5l25 70l-195 480h75l155 -390l155 390h75l-220 -550q-30 -75 -64 -107.5t-86 -32.5zM245 565q-60 0 -97.5 37.5t-37.5 97.5h55q0 -42 21 -63.5t59 -21.5t59 21.5t21 63.5h55
q0 -60 -37.5 -97.5t-97.5 -37.5z" />
    <glyph glyph-name="uni045F" unicode="&#x45f;" horiz-adv-x="570" 
d="M250 0h-170v480h70v-415h270v415h70v-480h-170v-120h-70v120z" />
    <glyph glyph-name="uni0462" unicode="&#x462;" horiz-adv-x="690" 
d="M150 525h-150v70h150v105h75v-105h190v-70h-190v-115h185q51 0 91.5 -15t69 -42.5t44 -65t15.5 -82.5t-15.5 -82.5t-44 -65t-69 -42.5t-91.5 -15h-260v525zM410 70q72 0 108.5 35.5t36.5 99.5t-36.5 99.5t-108.5 35.5h-185v-270h185z" />
    <glyph glyph-name="uni0463" unicode="&#x463;" horiz-adv-x="535" 
d="M125 415h-125v65h125v220h70v-220h155v-65h-155v-95h120q83 0 129 -44t46 -116t-46 -116t-128 -44h-191v415zM316 65q48 0 76 26.5t28 68.5t-28 68.5t-77 26.5h-120v-190h121z" />
    <glyph glyph-name="uni046A" unicode="&#x46a;" horiz-adv-x="795" 
d="M70 85q0 136 63 216t172 99l-220 250v50h625v-50l-220 -250q109 -19 172 -99t63 -216v-85h-75v85q0 64 -14.5 110t-42.5 76.5t-67.5 46t-90.5 17.5v-335h-75v335q-51 -2 -90.5 -17.5t-67.5 -46t-42.5 -76.5t-14.5 -110v-85h-75v85zM400 405l200 225h-405l200 -225h5z" />
    <glyph glyph-name="uni046B" unicode="&#x46b;" horiz-adv-x="650" 
d="M45 0q0 54 14.5 99t40 78t61.5 54t79 29l-160 170v50h490v-50l-160 -170q43 -8 79 -29t61.5 -54t40 -78t14.5 -99h-70q0 102 -46 151.5t-129 53.5v-205h-70v205q-83 -4 -129 -53.5t-46 -151.5h-70zM472 420h-294l147 -160z" />
    <glyph glyph-name="uni0472" unicode="&#x472;" horiz-adv-x="840" 
d="M420 -10q-75 0 -140.5 28t-114.5 77t-77 114.5t-28 140.5t28 140.5t77 114.5t114.5 77t140.5 28t140.5 -28t114.5 -77t77 -114.5t28 -140.5t-28 -140.5t-77 -114.5t-114.5 -77t-140.5 -28zM420 60q56 0 105.5 19.5t87.5 55t62 84t30 106.5q-20 -9 -43 -15
q-20 -6 -46 -10.5t-56 -4.5q-43 0 -79.5 6t-70 13.5t-65 14t-65.5 6.5q-36 0 -62.5 -5t-44.5 -11q-21 -7 -35 -16q8 -52 32 -96.5t61 -77t85 -51t104 -18.5zM560 365q35 0 62 5t45 11q21 7 35 16q-8 52 -32 96.5t-61 77t-85 51t-104 18.5t-105.5 -19.5t-87.5 -55t-62 -84
t-30 -106.5q19 8 42 15q20 5 46.5 10t56.5 5q43 0 79.5 -6.5t70 -14t65 -13.5t65.5 -6z" />
    <glyph glyph-name="uni0473" unicode="&#x473;" 
d="M290 -10q-51 0 -95.5 19.5t-77.5 53t-52.5 79t-19.5 98.5q0 52 19.5 98t52.5 79.5t77.5 53t95.5 19.5t95.5 -19.5t77.5 -53t52.5 -79.5t19.5 -98q0 -53 -19.5 -98.5t-52.5 -79t-77.5 -53t-95.5 -19.5zM290 55q34 0 64 12.5t53.5 34t38.5 51t19 63.5q-11 -7 -24 -11
q-11 -4 -26.5 -7t-34.5 -3q-30 0 -53.5 4t-44.5 8.5t-42 8.5t-45 4q-21 0 -35.5 -3t-23.5 -7q-11 -4 -17 -10q6 -32 22 -58.5t39.5 -46t51.5 -30t58 -10.5zM385 260q20 0 35 3t24 7q11 4 17 10q-6 32 -22 58.5t-39.5 46t-51.5 30t-58 10.5q-34 0 -64 -12.5t-53.5 -34
t-38.5 -51t-19 -63.5q11 6 24 10q11 4 26.5 7.5t34.5 3.5q30 0 53.5 -4t44.5 -8.5t42 -8.5t45 -4z" />
    <glyph glyph-name="uni0474" unicode="&#x474;" horiz-adv-x="700" 
d="M30 700h80l225 -590l171 450q15 39 28.5 67t30.5 46.5t38.5 27.5t51.5 9q11 0 21 -1.5t18 -3.5q9 -3 16 -5l-20 -65l-8 2t-9 2t-13 1q-26 0 -41 -16t-29 -54l-220 -570h-70z" />
    <glyph glyph-name="uni0475" unicode="&#x475;" horiz-adv-x="515" 
d="M20 480h75l150 -385l110 285q23 60 51.5 85t73.5 25q11 0 20 -1.5t16 -3.5q8 -3 14 -5l-20 -60q-3 1 -7 2q-3 1 -8 2t-10 1q-23 0 -35 -12.5t-24 -42.5l-146 -370h-70z" />
    <glyph glyph-name="uni048A" unicode="&#x48a;" horiz-adv-x="785" 
d="M670 0h-70v565l-430 -565h-65v700h75v-565l430 565h65v-630h110v-10l-115 -210h-50zM390 795q-60 0 -97.5 37.5t-37.5 97.5h55q0 -34 23 -57t57 -23t57 23t23 57h55q0 -60 -37.5 -97.5t-97.5 -37.5z" />
    <glyph glyph-name="uni048B" unicode="&#x48b;" horiz-adv-x="595" 
d="M495 0h-65v360l-290 -360h-60v480h70v-360l290 360h60v-415h95v-10l-95 -175h-45zM290 565q-60 0 -97.5 37.5t-37.5 97.5h55q0 -42 21 -63.5t59 -21.5t59 21.5t21 63.5h55q0 -60 -37.5 -97.5t-97.5 -37.5z" />
    <glyph glyph-name="uni048C" unicode="&#x48c;" horiz-adv-x="690" 
d="M150 525h-150v70h150v105h75v-105h190v-70h-190v-115h185q51 0 91.5 -15t69 -42.5t44 -65t15.5 -82.5t-15.5 -82.5t-44 -65t-69 -42.5t-91.5 -15h-260v525zM410 70q72 0 108.5 35.5t36.5 99.5t-36.5 99.5t-108.5 35.5h-185v-270h185z" />
    <glyph glyph-name="uni048D" unicode="&#x48d;" horiz-adv-x="535" 
d="M125 415h-125v65h125v220h70v-220h155v-65h-155v-95h120q83 0 129 -44t46 -116t-46 -116t-128 -44h-191v415zM316 65q48 0 76 26.5t28 68.5t-28 68.5t-77 26.5h-120v-190h121z" />
    <glyph glyph-name="uni048E" unicode="&#x48e;" horiz-adv-x="650" 
d="M105 700h265q49 0 90 -17t71 -46.5t47 -69.5t17 -87q0 -60 -28.5 -112t-81.5 -80l55 -78l-60 -40l-65 94q-6 -1 -13 -2q-6 -1 -14.5 -1.5t-17.5 -0.5h-190v-260h-75v700zM368 330l-53 75l60 40l70 -100q34 19 54.5 52.5t20.5 82.5q0 68 -41 109t-109 41h-190v-300h188z
" />
    <glyph glyph-name="uni048F" unicode="&#x48f;" horiz-adv-x="595" 
d="M80 480h70v-70q16 22 41 40q20 15 51 27.5t73 12.5q49 0 91.5 -18.5t74.5 -52t50.5 -79.5t18.5 -100q0 -64 -23.5 -112.5t-61.5 -82.5l60 -85l-55 -35l-60 85q-14 -6 -29 -10q-14 -4 -30.5 -7t-35.5 -3q-42 0 -73 12.5t-51 27.5q-25 18 -41 40v-280h-70v690zM315 55
q24 0 41 5q9 2 15 5l-66 95l55 35l66 -94q22 22 38 58t16 81q0 41 -13 75t-35.5 58.5t-52.5 38t-64 13.5q-32 0 -61.5 -14t-52.5 -39t-37 -59t-14 -73t14 -73t37 -59t52.5 -39t61.5 -14z" />
    <glyph glyph-name="uni0490" unicode="&#x490;" horiz-adv-x="550" 
d="M105 700h365v140h70v-210h-360v-630h-75v700z" />
    <glyph glyph-name="uni0491" unicode="&#x491;" horiz-adv-x="410" 
d="M80 480h254v120h66v-185h-250v-415h-70v480z" />
    <glyph glyph-name="uni0492" unicode="&#x492;" horiz-adv-x="575" 
d="M130 320h-100v70h100v310h425v-70h-350v-240h195v-70h-195v-320h-75v320z" />
    <glyph glyph-name="uni0493" unicode="&#x493;" horiz-adv-x="430" 
d="M100 200h-80v65h80v215h320v-65h-250v-150h140v-65h-140v-200h-70v200z" />
    <glyph glyph-name="uni0494" unicode="&#x494;" horiz-adv-x="665" 
d="M345 -65q83 0 134 53.5t51 151.5q0 87 -48 136t-127 49q-44 0 -76.5 -10.5t-54.5 -22.5q-26 -14 -44 -32v-260h-75v700h435v-70h-360v-285q22 14 49 25q23 9 56 17t75 8q56 0 101.5 -17.5t77.5 -50t49 -80t17 -107.5q0 -64 -19 -115t-53 -86.5t-82 -54.5t-106 -19v70z
" />
    <glyph glyph-name="uni0495" unicode="&#x495;" horiz-adv-x="490" 
d="M250 -145q61 0 100.5 42.5t39.5 132.5q0 83 -36.5 124t-93.5 41q-26 0 -46.5 -8t-34.5 -17q-17 -11 -29 -25v-145h-70v480h310v-65h-240v-190q12 9 29 17q14 7 35.5 12.5t50.5 5.5q41 0 76.5 -15.5t62 -45t41.5 -72.5t15 -97q0 -58 -15 -103t-43 -75.5t-66.5 -46
t-85.5 -15.5v65z" />
    <glyph glyph-name="uni0496" unicode="&#x496;" horiz-adv-x="975" 
d="M915 0h-50l-250 355l-95 -100v-255h-75v255l-95 100l-250 -355h-90l290 410l-265 290h95l315 -344v344h75v-344l315 344h95l-265 -290l240 -340h85v-220h-75v150z" />
    <glyph glyph-name="uni0497" unicode="&#x497;" horiz-adv-x="750" 
d="M685 0h-45l-170 235l-70 -75v-160h-70v160l-70 75l-170 -235h-80l205 285l-185 195h85l215 -230v230h70v-230l215 230h85l-185 -195l158 -220h82v-185h-70v120z" />
    <glyph glyph-name="uni0498" unicode="&#x498;" horiz-adv-x="595" 
d="M245 -8q-53 5 -93 22.5t-67 36.5q-32 22 -55 49l50 50q21 -26 51 -45q26 -17 63 -31t86 -14q43 0 76.5 11t56.5 30t35 43.5t12 50.5q0 28 -12 53.5t-35 44.5t-56.5 30.5t-76.5 11.5h-80v70h80q37 0 66 9.5t49 25.5t30 36.5t10 43.5q0 24 -10 46t-30 38.5t-49 26t-66 9.5
q-42 0 -74 -12.5t-55 -27.5q-26 -18 -46 -40l-50 50q25 28 58 50q29 19 70.5 34.5t96.5 15.5q54 0 97 -15t72.5 -40t45 -59t15.5 -71q0 -45 -18.5 -75t-41.5 -48q-26 -21 -60 -32q40 -12 72 -35q27 -20 50 -53.5t23 -86.5q0 -36 -15.5 -70t-43.5 -62t-67.5 -47t-88.5 -23
v-143h-75v142z" />
    <glyph glyph-name="uni0499" unicode="&#x499;" horiz-adv-x="440" 
d="M180 -8q-38 3 -66.5 16t-48.5 28q-23 18 -40 39l45 45q16 -19 36 -33q17 -12 42 -22t57 -10q60 0 87.5 23t27.5 57t-27.5 57t-87.5 23h-55v65h55q45 0 70 22.5t25 52.5t-23 50t-72 20q-29 0 -50.5 -8.5t-37.5 -19.5q-18 -12 -32 -27l-50 50q18 19 44 35q22 13 53 24
t73 11q37 0 67.5 -11.5t52.5 -30t33.5 -43t11.5 -50.5q0 -31 -10.5 -51t-24 -31.5t-25.5 -16.5t-15 -6q2 0 17 -4.5t32.5 -17t31.5 -35t14 -58.5q0 -24 -9 -47.5t-27 -43t-44 -33.5t-60 -18v-113h-70v112z" />
    <glyph glyph-name="uni049A" unicode="&#x49a;" horiz-adv-x="680" 
d="M620 0h-50l-250 355l-140 -150v-205h-75v700h75v-395l360 395h95l-265 -290l240 -340h85v-220h-75v150z" />
    <glyph glyph-name="uni049B" unicode="&#x49b;" horiz-adv-x="525" 
d="M460 0h-45l-170 235l-95 -100v-135h-70v480h70v-255l240 255h85l-185 -195l158 -220h82v-185h-70v120z" />
    <glyph glyph-name="uni049C" unicode="&#x49c;" horiz-adv-x="705" 
d="M105 700h75v-310h60v135h70v-135h50l210 310h90l-235 -345l260 -355h-90l-235 320h-50v-135h-70v135h-60v-320h-75v700z" />
    <glyph glyph-name="uni049D" unicode="&#x49d;" horiz-adv-x="540" 
d="M80 480h70v-210h50v105h60v-105h30l125 210h80l-140 -235l160 -245h-85l-137 210h-33v-100h-60v100h-50v-210h-70v480z" />
    <glyph glyph-name="uni049E" unicode="&#x49e;" horiz-adv-x="690" 
d="M135 530h-135v70h135v100h75v-100h125v-70h-125v-220l350 390h95l-260 -290l285 -410h-95l-244 351l-131 -146v-205h-75v530z" />
    <glyph glyph-name="uni049F" unicode="&#x49f;" horiz-adv-x="520" 
d="M95 545h-85v65h85v90h70v-90h140v-65h-140v-320l240 255h85l-185 -195l205 -285h-80l-170 235l-95 -100v-135h-70v545z" />
    <glyph glyph-name="uni04A0" unicode="&#x4a0;" horiz-adv-x="735" 
d="M180 630h-180v70h255v-390l350 390h95l-260 -290l285 -410h-95l-244 351l-131 -146v-205h-75v630z" />
    <glyph glyph-name="uni04A1" unicode="&#x4a1;" horiz-adv-x="525" 
d="M100 415h-100v65h170v-255l240 255h85l-185 -195l205 -285h-80l-170 235l-95 -100v-135h-70v415z" />
    <glyph glyph-name="uni04A2" unicode="&#x4a2;" horiz-adv-x="760" 
d="M655 0h-85v320h-390v-320h-75v700h75v-310h390v310h75v-630h85v-220h-75v150z" />
    <glyph glyph-name="uni04A3" unicode="&#x4a3;" horiz-adv-x="600" 
d="M500 0h-75v210h-275v-210h-70v480h70v-205h275v205h70v-415h75v-185h-70v120z" />
    <glyph glyph-name="uni04A4" unicode="&#x4a4;" horiz-adv-x="975" 
d="M105 700h75v-310h370v310h415v-70h-340v-630h-75v320h-370v-320h-75v700z" />
    <glyph glyph-name="uni04A5" unicode="&#x4a5;" horiz-adv-x="725" 
d="M80 480h70v-205h260v205h305v-65h-235v-415h-70v210h-260v-210h-70v480z" />
    <glyph glyph-name="uni04A6" unicode="&#x4a6;" horiz-adv-x="1085" 
d="M800 -65q83 0 134 53.5t51 151.5q0 87 -48 136t-127 49q-44 0 -76.5 -10.5t-54.5 -22.5q-26 -14 -44 -32v-260h-75v630h-380v-630h-75v700h530v-355q22 14 49 25q23 9 56 17t75 8q56 0 101.5 -17.5t77.5 -50t49 -80t17 -107.5q0 -64 -19 -115t-53 -86.5t-82 -54.5
t-106 -19v70z" />
    <glyph glyph-name="uni04A7" unicode="&#x4a7;" horiz-adv-x="815" 
d="M585 -145q61 0 100.5 42.5t39.5 132.5q0 83 -36.5 124t-93.5 41q-26 0 -46.5 -8t-34.5 -17q-17 -11 -29 -25v-145h-70v414h-265v-414h-70v480h405v-255q12 9 29 17q14 7 35.5 12.5t50.5 5.5q41 0 76.5 -15.5t62 -45t41.5 -72.5t15 -97q0 -58 -15 -103t-43 -75.5
t-66.5 -46t-85.5 -15.5v65z" />
    <glyph glyph-name="uni04A8" unicode="&#x4a8;" horiz-adv-x="835" 
d="M415 -10q-71 0 -134 27.5t-110 75.5t-74 114t-27 143q0 81 25 145.5t68 111t99 73t118 30.5v-70q-47 -4 -89.5 -24.5t-75 -57t-51.5 -89t-19 -119.5q0 -64 21 -117t58 -91.5t87.5 -60t108.5 -21.5h45q-41 30 -73 77q-27 39 -49.5 99.5t-22.5 143.5q0 66 18.5 118t49 88
t71.5 55t86 19t86 -19t71.5 -55t49 -88t18.5 -118q0 -83 -23.5 -143.5t-51.5 -99.5q-33 -47 -75 -77h40q30 0 52.5 5t37.5 12q18 8 30 18l30 -60q-13 -13 -34 -23q-18 -8 -46 -15t-70 -7q-26 0 -47.5 3.5t-36.5 8.5q-18 5 -31 13q-17 -8 -37 -13q-17 -5 -41 -8.5t-52 -3.5z
M543 85q43 25 76 65q29 35 52.5 91t23.5 139q0 52 -12 91.5t-33 66t-48 39.5t-57 13t-57 -13t-48 -39.5t-33 -66t-12 -91.5q0 -83 23 -139t51 -91q33 -40 74 -65z" />
    <glyph glyph-name="uni04A9" unicode="&#x4a9;" horiz-adv-x="600" 
d="M285 -10q-51 0 -94.5 18.5t-76 52.5t-51 81t-18.5 103q0 52 16.5 95.5t44 75.5t64 51t75.5 23v-65q-24 -4 -47.5 -17.5t-42 -36.5t-29.5 -55t-11 -71q0 -43 13.5 -78.5t36.5 -61.5t55 -40.5t70 -14.5h15q-22 21 -40 52q-15 26 -27.5 65.5t-12.5 92.5q0 43 11.5 77.5
t31.5 58.5t47.5 36.5t59.5 12.5t59.5 -12.5t47.5 -36.5t31.5 -58.5t11.5 -77.5q0 -53 -12.5 -92.5t-27.5 -65.5q-18 -31 -40 -52h20q26 0 45 8t31 19q14 12 24 28l45 -45q-15 -20 -34 -35q-17 -14 -42 -24.5t-59 -10.5q-26 0 -45 3t-31 7q-14 4 -24 10q-10 -6 -23 -10
q-11 -4 -27.5 -7t-39.5 -3zM375 65q22 16 40 42q15 23 27.5 59t12.5 89q0 64 -25 94.5t-55 30.5t-55 -30.5t-25 -94.5q0 -53 12.5 -89t27.5 -59q18 -26 40 -42z" />
    <glyph glyph-name="uni04AA" unicode="&#x4aa;" horiz-adv-x="750" 
d="M375 -7q-68 8 -125.5 39t-99.5 78.5t-66 109t-24 130.5q0 75 28 140.5t77 114.5t114.5 77t140.5 28q72 0 125 -23t89 -50q41 -32 71 -72l-50 -45q-24 34 -58 60q-29 23 -73 41.5t-104 18.5t-112 -22t-90.5 -61t-60.5 -92t-22 -115t22 -115t60.5 -92t90.5 -61t112 -22
t105 18.5t75 41.5q35 26 60 60l50 -45q-27 -37 -66 -67q-33 -26 -81.5 -49t-112.5 -28v-141h-75v143z" />
    <glyph glyph-name="uni04AB" unicode="&#x4ab;" horiz-adv-x="515" 
d="M245 -6q-41 6 -77.5 27.5t-63.5 54.5t-43 75t-16 89q0 52 19 98t52 79.5t76.5 53t92.5 19.5q47 0 83 -15t61 -33q29 -21 51 -47l-50 -50q-16 22 -37 40q-18 15 -45.5 27.5t-62.5 12.5q-34 0 -64.5 -14t-54 -39t-37.5 -59t-14 -73t14 -73t37.5 -59t54 -39t64.5 -14
q35 0 63 12.5t48 27.5q23 18 39 40l50 -45q-20 -24 -46 -44q-22 -17 -53.5 -33t-70.5 -21v-112h-70v114z" />
    <glyph glyph-name="uni04AC" unicode="&#x4ac;" horiz-adv-x="555" 
d="M325 0h-85v630h-220v70h515v-70h-220v-560h85v-220h-75v150z" />
    <glyph glyph-name="uni04AD" unicode="&#x4ad;" horiz-adv-x="450" 
d="M265 0h-75v415h-170v65h410v-65h-170v-350h75v-185h-70v120z" />
    <glyph glyph-name="uni04AE" unicode="&#x4ae;" horiz-adv-x="635" 
d="M280 245l-260 455h85l210 -375h5l210 375h85l-260 -455v-245h-75v245z" />
    <glyph glyph-name="uni04AF" unicode="&#x4af;" horiz-adv-x="490" 
d="M210 0l-195 480h75l155 -385l155 385h75l-195 -480v-210h-70v210z" />
    <glyph glyph-name="uni04B0" unicode="&#x4b0;" horiz-adv-x="635" 
d="M280 200h-160v70h155l-255 430h85l210 -360h5l210 360h85l-255 -430h155v-70h-160v-200h-75v200z" />
    <glyph glyph-name="uni04B1" unicode="&#x4b1;" horiz-adv-x="490" 
d="M210 -65h-110v65h110l-195 480h75l155 -385l155 385h75l-195 -480h110v-65h-110v-145h-70v145z" />
    <glyph glyph-name="uni04B2" unicode="&#x4b2;" horiz-adv-x="665" 
d="M590 0h-50l-215 305l-215 -305h-90l260 365l-240 335h90l195 -275l195 275h90l-240 -335l210 -295h85v-220h-75v150z" />
    <glyph glyph-name="uni04B3" unicode="&#x4b3;" horiz-adv-x="490" 
d="M425 0h-45l-140 195l-140 -195h-85l180 250l-165 230h85l125 -175l125 175h85l-165 -230l133 -185h77v-185h-70v120z" />
    <glyph glyph-name="uni04B4" unicode="&#x4b4;" horiz-adv-x="890" 
d="M785 0h-545v630h-220v70h495v-70h-200v-560h380v630h75v-630h90v-220h-75v150z" />
    <glyph glyph-name="uni04B5" unicode="&#x4b5;" horiz-adv-x="700" 
d="M600 0h-410v415h-170v65h390v-65h-150v-350h265v415h70v-415h75v-185h-70v120z" />
    <glyph glyph-name="uni04B6" unicode="&#x4b6;" horiz-adv-x="715" 
d="M610 0h-85v305q-23 -17 -52 -30q-25 -11 -60 -20.5t-78 -9.5q-55 0 -99.5 17t-75.5 48.5t-48 77t-17 102.5v210h75v-210q0 -85 46 -130t129 -45q43 0 76.5 11.5t56.5 25.5q27 17 47 38v310h75v-630h85v-220h-75v150z" />
    <glyph glyph-name="uni04B7" unicode="&#x4b7;" horiz-adv-x="565" 
d="M465 0h-75v195q-17 -11 -38 -20q-18 -8 -42.5 -14t-54.5 -6q-41 0 -75 13.5t-58.5 38t-38 58.5t-13.5 75v140h70v-140q0 -53 33.5 -86.5t86.5 -33.5q30 0 54 7t41 15q19 10 35 23v215h70v-415h75v-185h-70v120z" />
    <glyph glyph-name="uni04B8" unicode="&#x4b8;" horiz-adv-x="715" 
d="M535 310q-17 -13 -39 -24q-19 -10 -45.5 -20.5t-60.5 -15.5v-110h-70v105q-53 2 -94.5 20t-70.5 50t-44.5 76.5t-15.5 98.5v210h75v-210q0 -79 39 -123t111 -51v139h70v-136q34 6 60.5 18.5t45.5 25.5q22 15 39 32v305h75v-700h-75v310z" />
    <glyph glyph-name="uni04B9" unicode="&#x4b9;" horiz-adv-x="550" 
d="M400 200q-9 -7 -23 -14q-12 -6 -30 -13.5t-42 -12.5v-80h-60v75q-39 2 -71.5 16.5t-55.5 38.5t-35.5 57.5t-12.5 72.5v140h70v-140q0 -49 30 -82.5t75 -36.5v99h60v-95q20 4 37.5 11t30.5 15q15 9 27 19v210h70v-480h-70v200z" />
    <glyph glyph-name="uni04BA" unicode="&#x4ba;" horiz-adv-x="680" 
d="M105 700h75v-305q23 17 52 30q25 11 59.5 20.5t78.5 9.5q55 0 99.5 -17t75.5 -48.5t48 -77t17 -102.5v-210h-75v210q0 85 -46 130t-129 45q-44 0 -77 -12t-56 -26q-27 -17 -47 -37v-310h-75v700z" />
    <glyph glyph-name="uni04BB" unicode="&#x4bb;" horiz-adv-x="585" 
d="M85 700h70v-290q15 22 38 40q20 15 48.5 27.5t68.5 12.5q43 0 79 -14.5t61.5 -41t40 -64.5t14.5 -85v-285h-70v285q0 64 -36.5 102t-93.5 38q-32 0 -59.5 -11.5t-47.5 -32.5t-31.5 -50.5t-11.5 -65.5v-265h-70v700z" />
    <glyph glyph-name="uni04BC" unicode="&#x4bc;" horiz-adv-x="870" 
d="M505 -10q-73 0 -136 26t-110 72.5t-74.5 110.5t-29.5 141h-15q-79 0 -114.5 31t-35.5 84q0 9 0.5 15.5t1.5 11.5t3 8h70v-20q0 -30 16 -45t54 -15h24q8 66 36 121t71 94.5t99 62t120 22.5q67 0 126.5 -26t103.5 -74.5t69.5 -117t25.5 -152.5h-580q0 -62 20.5 -113.5
t57 -88.5t87 -57.5t110.5 -20.5q58 0 100.5 16t70.5 36q33 23 54 53l50 -45q-26 -37 -66 -65q-34 -25 -85.5 -45t-123.5 -20zM729 410q-9 56 -31.5 99t-54.5 72t-72.5 44t-85.5 15q-47 0 -88.5 -15t-74 -44t-55 -72t-31.5 -99h493z" />
    <glyph glyph-name="uni04BD" unicode="&#x4bd;" horiz-adv-x="625" 
d="M365 -10q-49 0 -91 19t-74 50.5t-51.5 72t-22.5 83.5h-1q-68 0 -99 27.5t-31 72.5q0 9 0.5 15.5t1.5 11.5t3 8h60v-15q0 -60 65 -60h2q7 47 27 86.5t50.5 68t69 44.5t81.5 16q47 0 88 -18t71.5 -49.5t48 -76t17.5 -96.5q0 -8 -1 -14.5t-2 -11.5q-1 -6 -2 -10l-380 1
q2 -32 16 -61t37 -51t53 -35t64 -13q38 0 66.5 12.5t48.5 27.5q23 18 40 40l45 -45q-21 -28 -51 -50q-26 -19 -63 -34.5t-86 -15.5zM510 275q-4 32 -17.5 59.5t-34 47.5t-47 31.5t-56.5 11.5q-32 0 -59.5 -12t-48.5 -33t-34.5 -48t-17.5 -57h315z" />
    <glyph glyph-name="uni04BE" unicode="&#x4be;" horiz-adv-x="870" 
d="M455 -6q-64 8 -118 37t-94 74.5t-63 105.5t-25 129h-15q-79 0 -114.5 31t-35.5 84q0 9 0.5 15.5t1.5 11.5t3 8h70v-20q0 -30 16 -45t54 -15h24q8 66 36 121t71 94.5t99 62t120 22.5q67 0 126.5 -26t103.5 -74.5t69.5 -117t25.5 -152.5h-580q0 -62 20.5 -113.5t57 -88.5
t87 -57.5t110.5 -20.5q58 0 100.5 16t70.5 36q33 23 54 53l50 -45q-25 -34 -61 -61q-31 -23 -78 -44t-111 -24v-141h-75v144zM729 410q-9 56 -31.5 99t-54.5 72t-72.5 44t-85.5 15q-47 0 -88.5 -15t-74 -44t-55 -72t-31.5 -99h493z" />
    <glyph glyph-name="uni04BF" unicode="&#x4bf;" horiz-adv-x="625" 
d="M320 -5q-39 7 -73 28t-60 50.5t-42 66t-19 75.5h-1q-68 0 -99 27.5t-31 72.5q0 9 0.5 15.5t1.5 11.5t3 8h60v-15q0 -60 65 -60h2q7 47 27 86.5t50.5 68t69 44.5t81.5 16q47 0 88 -18t71.5 -49.5t48 -76t17.5 -96.5q0 -8 -1 -14.5t-2 -11.5q-1 -6 -2 -10l-380 1
q2 -32 16 -61t37 -51t53 -35t64 -13q38 0 66.5 12.5t48.5 27.5q23 18 40 40l45 -45q-18 -24 -44 -44q-22 -17 -55 -33.5t-76 -21.5v-111h-70v115zM510 275q-4 32 -17.5 59.5t-34 47.5t-47 31.5t-56.5 11.5q-32 0 -59.5 -12t-48.5 -33t-34.5 -48t-17.5 -57h315z" />
    <glyph glyph-name="uni04C0" unicode="&#x4c0;" horiz-adv-x="285" 
d="M105 700h75v-700h-75v700z" />
    <glyph glyph-name="uni04C1" unicode="&#x4c1;" horiz-adv-x="965" 
d="M300 410l-265 290h95l315 -344v344h75v-344l315 344h95l-265 -290l290 -410h-90l-250 355l-95 -100v-255h-75v255l-95 100l-250 -355h-90zM480 795q-60 0 -97.5 37.5t-37.5 97.5h55q0 -34 23 -57t57 -23t57 23t23 57h55q0 -60 -37.5 -97.5t-97.5 -37.5z" />
    <glyph glyph-name="uni04C2" unicode="&#x4c2;" horiz-adv-x="730" 
d="M215 285l-185 195h85l215 -230v230h70v-230l215 230h85l-185 -195l205 -285h-80l-170 235l-70 -75v-160h-70v160l-70 75l-170 -235h-80zM365 565q-60 0 -97.5 37.5t-37.5 97.5h55q0 -42 21 -63.5t59 -21.5t59 21.5t21 63.5h55q0 -60 -37.5 -97.5t-97.5 -37.5z" />
    <glyph glyph-name="uni04C3" unicode="&#x4c3;" horiz-adv-x="705" 
d="M390 -140q37 0 71 16t59 48.5t40 81t15 114.5q0 54 -12.5 94.5t-34.5 67.5t-52 40t-66 13q-30 0 -56.5 -5.5t-51.5 -17.5t-49.5 -32t-50.5 -50l-22 -25v-205h-75v700h75v-390l340 390h95l-275 -310q8 3 19 7q9 3 23 5.5t33 2.5q52 0 95.5 -18t74.5 -53.5t48 -89
t17 -124.5q0 -81 -20 -142.5t-55.5 -103t-83 -63t-101.5 -21.5v70z" />
    <glyph glyph-name="uni04C4" unicode="&#x4c4;" horiz-adv-x="520" 
d="M280 -145q60 0 95 40.5t35 134.5q0 47 -10 80t-27 54t-41 31t-52 10q-30 0 -54 -10.5t-41 -22.5q-20 -14 -35 -32v-140h-70v480h70v-250l225 250h85l-200 -220q5 1 11 2q5 1 12 2t17 1q37 0 70 -14t57.5 -43.5t38.5 -73.5t14 -104q0 -120 -55 -180t-145 -60v65z" />
    <glyph glyph-name="uni04C5" unicode="&#x4c5;" horiz-adv-x="740" 
d="M625 0h-70v630h-300v-140q0 -106 -6 -184.5t-18 -134t-28.5 -91t-38.5 -55.5t-48 -27.5t-56 -7.5q-26 0 -46 5q-11 2 -19 5v75q8 -3 18 -5q18 -5 37 -5q28 0 52 14.5t41 59.5t27 128.5t10 222.5v210h450v-630h110v-10l-115 -210h-50z" />
    <glyph glyph-name="uni04C6" unicode="&#x4c6;" horiz-adv-x="575" 
d="M475 0h-65v415h-210v-75q0 -109 -11 -177t-30.5 -106.5t-47 -52.5t-61.5 -14q-20 0 -35 5q-8 2 -15 5v70q5 -3 12 -5q12 -5 28 -5q21 0 37.5 9.5t28 39t18 84.5t6.5 147v140h350v-415h95v-10l-95 -175h-45z" />
    <glyph glyph-name="uni04C7" unicode="&#x4c7;" horiz-adv-x="750" 
d="M520 -210q-17 0 -30.5 2t-23.5 5q-11 4 -21 8v65q7 -4 17 -8q19 -7 48 -7q28 0 44 18.5t16 61.5v385h-390v-320h-75v700h75v-310h390v310h75v-765q0 -75 -32.5 -110t-92.5 -35z" />
    <glyph glyph-name="uni04C8" unicode="&#x4c8;" horiz-adv-x="575" 
d="M365 -210q-14 0 -24.5 2t-18.5 5q-10 4 -17 8v65q7 -4 16 -8q17 -7 39 -7q30 0 47.5 18.5t17.5 56.5v280h-275v-210h-70v480h70v-205h275v205h70v-550q0 -140 -130 -140z" />
    <glyph glyph-name="uni04C9" unicode="&#x4c9;" horiz-adv-x="755" 
d="M640 0h-70v320h-390v-320h-75v700h75v-310h390v310h75v-630h110v-10l-115 -210h-50z" />
    <glyph glyph-name="uni04CA" unicode="&#x4ca;" horiz-adv-x="590" 
d="M490 0h-65v210h-275v-210h-70v480h70v-205h275v205h70v-415h95v-10l-95 -175h-45z" />
    <glyph glyph-name="uni04CB" unicode="&#x4cb;" horiz-adv-x="705" 
d="M440 70h85v235q-23 -17 -52 -30q-25 -11 -60 -20.5t-78 -9.5q-55 0 -99.5 17t-75.5 48.5t-48 77t-17 102.5v210h75v-210q0 -85 46 -130t129 -45q43 0 76.5 11.5t56.5 25.5q27 17 47 38v310h75v-700h-85v-150h-75v220z" />
    <glyph glyph-name="uni04CC" unicode="&#x4cc;" horiz-adv-x="540" 
d="M315 65h75v130q-17 -11 -38 -20q-18 -8 -42.5 -14t-54.5 -6q-41 0 -75 13.5t-58.5 38t-38 58.5t-13.5 75v140h70v-140q0 -53 33.5 -86.5t86.5 -33.5q30 0 54 7t41 15q19 10 35 23v215h70v-480h-75v-120h-70v185z" />
    <glyph glyph-name="uni04CD" unicode="&#x4cd;" horiz-adv-x="925" 
d="M810 0h-70v570l-280 -370l-280 370v-570h-75v700h65l290 -380l290 380h65v-630h110v-10l-115 -210h-50z" />
    <glyph glyph-name="uni04CE" unicode="&#x4ce;" horiz-adv-x="665" 
d="M565 0h-65v355l-175 -220l-175 220v-355h-70v480h55l190 -240l190 240h55v-415h95v-10l-95 -175h-45z" />
    <glyph glyph-name="uni04CF" unicode="&#x4cf;" horiz-adv-x="240" 
d="M85 700h70v-700h-70v700z" />
    <glyph glyph-name="uni04D0" unicode="&#x4d0;" horiz-adv-x="690" 
d="M310 700h70l290 -700h-80l-80 195h-330l-80 -195h-80zM480 265l-135 330l-135 -330h270zM345 795q-60 0 -97.5 37.5t-37.5 97.5h55q0 -34 23 -57t57 -23t57 23t23 57h55q0 -60 -37.5 -97.5t-97.5 -37.5z" />
    <glyph glyph-name="uni04D1" unicode="&#x4d1;" horiz-adv-x="520" 
d="M215 -10q-38 0 -69 12t-53.5 31.5t-35 45t-12.5 51.5q0 60 36 97t104 48l185 30q0 53 -33.5 86.5t-86.5 33.5q-32 0 -57 -11t-42 -24q-20 -16 -36 -35l-45 45q20 25 47 45q23 17 56 31t77 14q41 0 76 -14t60.5 -39t39.5 -59t14 -73v-305h-70v65q-15 -21 -38 -38
q-20 -14 -49 -25.5t-68 -11.5zM215 55q34 0 62.5 11.5t49 32.5t32 50.5t11.5 65.5v30l-165 -30q-90 -17 -90 -85q0 -30 25.5 -52.5t74.5 -22.5zM265 565q-60 0 -97.5 37.5t-37.5 97.5h55q0 -42 21 -63.5t59 -21.5t59 21.5t21 63.5h55q0 -60 -37.5 -97.5t-97.5 -37.5z" />
    <glyph glyph-name="uni04D2" unicode="&#x4d2;" horiz-adv-x="690" 
d="M310 700h70l290 -700h-80l-80 195h-330l-80 -195h-80zM480 265l-135 330l-135 -330h270zM250 810q-19 0 -32 13t-13 32t13 32t32 13t32 -13t13 -32t-13 -32t-32 -13zM440 810q-19 0 -32 13t-13 32t13 32t32 13t32 -13t13 -32t-13 -32t-32 -13z" />
    <glyph glyph-name="uni04D3" unicode="&#x4d3;" horiz-adv-x="520" 
d="M215 -10q-38 0 -69 12t-53.5 31.5t-35 45t-12.5 51.5q0 60 36 97t104 48l185 30q0 53 -33.5 86.5t-86.5 33.5q-32 0 -57 -11t-42 -24q-20 -16 -36 -35l-45 45q20 25 47 45q23 17 56 31t77 14q41 0 76 -14t60.5 -39t39.5 -59t14 -73v-305h-70v65q-15 -21 -38 -38
q-20 -14 -49 -25.5t-68 -11.5zM215 55q34 0 62.5 11.5t49 32.5t32 50.5t11.5 65.5v30l-165 -30q-90 -17 -90 -85q0 -30 25.5 -52.5t74.5 -22.5zM170 585q-19 0 -32 13t-13 32t13 32t32 13t32 -13t13 -32t-13 -32t-32 -13zM360 585q-19 0 -32 13t-13 32t13 32t32 13t32 -13
t13 -32t-13 -32t-32 -13z" />
    <glyph glyph-name="uni04D6" unicode="&#x4d6;" horiz-adv-x="640" 
d="M105 700h480v-70h-405v-230h325v-70h-325v-260h415v-70h-490v700zM345 795q-60 0 -97.5 37.5t-37.5 97.5h55q0 -34 23 -57t57 -23t57 23t23 57h55q0 -60 -37.5 -97.5t-97.5 -37.5z" />
    <glyph glyph-name="uni04D7" unicode="&#x4d7;" horiz-adv-x="555" 
d="M285 -10q-49 0 -92.5 19.5t-76.5 53t-52 79t-19 98.5q0 52 19 98t51.5 79.5t75 53t89.5 19.5q49 0 91 -18t73 -49.5t48.5 -76t17.5 -96.5q0 -8 -1 -14.5t-2 -11.5q-1 -6 -2 -10l-390 1q2 -32 16 -61t37 -51t53 -35t64 -13q38 0 66.5 12.5t48.5 27.5q23 18 40 40l45 -45
q-21 -28 -51 -50q-26 -19 -63 -34.5t-86 -15.5zM440 275q-4 32 -17.5 59.5t-34.5 47.5t-48.5 31.5t-59.5 11.5t-60.5 -12t-50.5 -33t-36 -48t-18 -57h325zM280 565q-60 0 -97.5 37.5t-37.5 97.5h55q0 -42 21 -63.5t59 -21.5t59 21.5t21 63.5h55q0 -60 -37.5 -97.5
t-97.5 -37.5z" />
    <glyph glyph-name="uni04D8" unicode="&#x4d8;" horiz-adv-x="785" 
d="M395 -10q-71 0 -132.5 26t-106.5 73.5t-70.5 113.5t-25.5 147h590q0 66 -20.5 119.5t-56.5 91.5t-85.5 58.5t-107.5 20.5q-59 0 -101 -15.5t-70 -34.5q-33 -22 -54 -50l-50 45q28 35 68 62q35 23 86 43t121 20q73 0 136 -26.5t109.5 -74.5t73 -114t26.5 -145
q0 -81 -25.5 -147t-70 -113.5t-105 -73.5t-129.5 -26zM395 60q47 0 88.5 14.5t74 43t55 69t31.5 93.5h-503q9 -52 31.5 -93t55.5 -69t75.5 -43t91.5 -15z" />
    <glyph glyph-name="uni04D9" unicode="&#x4d9;" horiz-adv-x="555" 
d="M280 -10q-51 0 -94 18t-74.5 51t-49 79t-17.5 102v16l395 -1q-2 34 -16 64.5t-37 54t-53 37.5t-64 14q-38 0 -66 -12t-47 -26q-22 -17 -37 -37l-50 40q21 28 51 50q26 19 63 34.5t86 15.5t92.5 -19.5t76.5 -53t52 -79.5t19 -98q0 -53 -19 -98.5t-51 -79t-73.5 -53
t-86.5 -19.5zM280 55q28 0 54.5 10.5t47.5 29.5t35 44.5t18 55.5h-315q8 -64 52 -102t108 -38z" />
    <glyph glyph-name="uni04DA" unicode="&#x4da;" horiz-adv-x="785" 
d="M395 -10q-71 0 -132.5 26t-106.5 73.5t-70.5 113.5t-25.5 147h590q0 66 -20.5 119.5t-56.5 91.5t-85.5 58.5t-107.5 20.5q-59 0 -101 -15.5t-70 -34.5q-33 -22 -54 -50l-50 45q28 35 68 62q35 23 86 43t121 20q73 0 136 -26.5t109.5 -74.5t73 -114t26.5 -145
q0 -81 -25.5 -147t-70 -113.5t-105 -73.5t-129.5 -26zM395 60q47 0 88.5 14.5t74 43t55 69t31.5 93.5h-503q9 -52 31.5 -93t55.5 -69t75.5 -43t91.5 -15zM305 810q-19 0 -32 13t-13 32t13 32t32 13t32 -13t13 -32t-13 -32t-32 -13zM495 810q-19 0 -32 13t-13 32t13 32t32 13
t32 -13t13 -32t-13 -32t-32 -13z" />
    <glyph glyph-name="uni04DB" unicode="&#x4db;" horiz-adv-x="555" 
d="M280 -10q-51 0 -94 18t-74.5 51t-49 79t-17.5 102v16l395 -1q-2 34 -16 64.5t-37 54t-53 37.5t-64 14q-38 0 -66 -12t-47 -26q-22 -17 -37 -37l-50 40q21 28 51 50q26 19 63 34.5t86 15.5t92.5 -19.5t76.5 -53t52 -79.5t19 -98q0 -53 -19 -98.5t-51 -79t-73.5 -53
t-86.5 -19.5zM280 55q28 0 54.5 10.5t47.5 29.5t35 44.5t18 55.5h-315q8 -64 52 -102t108 -38zM185 585q-19 0 -32 13t-13 32t13 32t32 13t32 -13t13 -32t-13 -32t-32 -13zM375 585q-19 0 -32 13t-13 32t13 32t32 13t32 -13t13 -32t-13 -32t-32 -13z" />
    <glyph glyph-name="uni04DC" unicode="&#x4dc;" horiz-adv-x="965" 
d="M300 410l-265 290h95l315 -344v344h75v-344l315 344h95l-265 -290l290 -410h-90l-250 355l-95 -100v-255h-75v255l-95 100l-250 -355h-90zM385 810q-19 0 -32 13t-13 32t13 32t32 13t32 -13t13 -32t-13 -32t-32 -13zM575 810q-19 0 -32 13t-13 32t13 32t32 13t32 -13
t13 -32t-13 -32t-32 -13z" />
    <glyph glyph-name="uni04DD" unicode="&#x4dd;" horiz-adv-x="730" 
d="M215 285l-185 195h85l215 -230v230h70v-230l215 230h85l-185 -195l205 -285h-80l-170 235l-70 -75v-160h-70v160l-70 75l-170 -235h-80zM270 585q-19 0 -32 13t-13 32t13 32t32 13t32 -13t13 -32t-13 -32t-32 -13zM460 585q-19 0 -32 13t-13 32t13 32t32 13t32 -13
t13 -32t-13 -32t-32 -13z" />
    <glyph glyph-name="uni04DE" unicode="&#x4de;" horiz-adv-x="595" 
d="M280 -10q-63 0 -109 17t-78 38q-37 24 -63 55l50 50q21 -26 51 -45q26 -17 63 -31t86 -14q43 0 76.5 11t56.5 30t35 43.5t12 50.5q0 28 -12 53.5t-35 44.5t-56.5 30.5t-76.5 11.5h-80v70h80q37 0 66 9.5t49 25.5t30 36.5t10 43.5q0 24 -10 46t-30 38.5t-49 26t-66 9.5
q-42 0 -74 -12.5t-55 -27.5q-26 -18 -46 -40l-50 50q25 28 58 50q29 19 70.5 34.5t96.5 15.5q54 0 97 -15t72.5 -40t45 -59t15.5 -71q0 -45 -18.5 -75t-41.5 -48q-26 -21 -60 -32q40 -12 72 -35q27 -20 50 -53.5t23 -86.5q0 -39 -18 -76t-51.5 -65.5t-80.5 -46t-105 -17.5z
M190 810q-19 0 -32 13t-13 32t13 32t32 13t32 -13t13 -32t-13 -32t-32 -13zM380 810q-19 0 -32 13t-13 32t13 32t32 13t32 -13t13 -32t-13 -32t-32 -13z" />
    <glyph glyph-name="uni04DF" unicode="&#x4df;" horiz-adv-x="440" 
d="M205 -10q-45 0 -78.5 13t-56.5 29q-26 18 -45 43l45 45q16 -19 36 -33q17 -12 42 -22t57 -10q60 0 87.5 23t27.5 57t-27.5 57t-87.5 23h-55v65h55q45 0 70 22.5t25 52.5t-23 50t-72 20q-29 0 -50.5 -8.5t-37.5 -19.5q-18 -12 -32 -27l-50 50q18 19 44 35q22 13 53 24
t73 11q37 0 67.5 -11.5t52.5 -30t33.5 -43t11.5 -50.5q0 -32 -12 -53t-26 -32q-17 -14 -37 -20q26 -6 47 -20q18 -12 33 -34.5t15 -60.5q0 -28 -11.5 -54t-34.5 -46.5t-57.5 -32.5t-81.5 -12zM115 585q-19 0 -32 13t-13 32t13 32t32 13t32 -13t13 -32t-13 -32t-32 -13z
M305 585q-19 0 -32 13t-13 32t13 32t32 13t32 -13t13 -32t-13 -32t-32 -13z" />
    <glyph glyph-name="uni04E0" unicode="&#x4e0;" horiz-adv-x="590" 
d="M285 -10q-63 0 -109 17t-78 38q-37 24 -63 55l50 50q21 -26 51 -45q26 -17 63 -31t86 -14q43 0 76.5 11.5t56.5 31t35 46t12 56.5t-12 56.5t-36 46t-59.5 31t-82.5 11.5h-120v50l260 230h-345v70h440v-70l-240 -210h5q62 0 111 -17.5t83.5 -47t52.5 -68.5t18 -82t-18 -82
t-51.5 -68.5t-80.5 -47t-105 -17.5z" />
    <glyph glyph-name="uni04E1" unicode="&#x4e1;" horiz-adv-x="490" 
d="M225 -210q-51 0 -89 13t-64 29q-30 18 -52 43l50 50q17 -20 40 -35q20 -14 48.5 -24.5t66.5 -10.5q72 0 113.5 38t41.5 102t-42.5 99.5t-117.5 35.5h-95v50l210 235h-290v65h375v-65l-200 -220h5q51 0 92.5 -13.5t71 -39.5t45.5 -63t16 -84t-16 -85t-45.5 -64.5t-71 -41
t-92.5 -14.5z" />
    <glyph glyph-name="uni04E2" unicode="&#x4e2;" horiz-adv-x="780" 
d="M105 700h75v-565l430 565h65v-700h-75v565l-430 -565h-65v700zM245 885h290v-55h-290v55z" />
    <glyph glyph-name="uni04E3" unicode="&#x4e3;" 
d="M80 480h70v-360l290 360h60v-480h-70v360l-290 -360h-60v480zM145 665h290v-55h-290v55z" />
    <glyph glyph-name="uni04E4" unicode="&#x4e4;" horiz-adv-x="780" 
d="M105 700h75v-565l430 565h65v-700h-75v565l-430 -565h-65v700zM295 810q-19 0 -32 13t-13 32t13 32t32 13t32 -13t13 -32t-13 -32t-32 -13zM485 810q-19 0 -32 13t-13 32t13 32t32 13t32 -13t13 -32t-13 -32t-32 -13z" />
    <glyph glyph-name="uni04E5" unicode="&#x4e5;" 
d="M80 480h70v-360l290 360h60v-480h-70v360l-290 -360h-60v480zM195 585q-19 0 -32 13t-13 32t13 32t32 13t32 -13t13 -32t-13 -32t-32 -13zM385 585q-19 0 -32 13t-13 32t13 32t32 13t32 -13t13 -32t-13 -32t-32 -13z" />
    <glyph glyph-name="uni04E6" unicode="&#x4e6;" horiz-adv-x="840" 
d="M420 -10q-75 0 -140.5 28t-114.5 77t-77 114.5t-28 140.5t28 140.5t77 114.5t114.5 77t140.5 28t140.5 -28t114.5 -77t77 -114.5t28 -140.5t-28 -140.5t-77 -114.5t-114.5 -77t-140.5 -28zM420 60q60 0 112 22t90.5 61t60.5 92t22 115t-22 115t-60.5 92t-90.5 61t-112 22
t-112 -22t-90.5 -61t-60.5 -92t-22 -115t22 -115t60.5 -92t90.5 -61t112 -22zM325 810q-19 0 -32 13t-13 32t13 32t32 13t32 -13t13 -32t-13 -32t-32 -13zM515 810q-19 0 -32 13t-13 32t13 32t32 13t32 -13t13 -32t-13 -32t-32 -13z" />
    <glyph glyph-name="uni04E7" unicode="&#x4e7;" 
d="M290 -10q-51 0 -95.5 19.5t-77.5 53t-52.5 79t-19.5 98.5q0 52 19.5 98t52.5 79.5t77.5 53t95.5 19.5t95.5 -19.5t77.5 -53t52.5 -79.5t19.5 -98q0 -53 -19.5 -98.5t-52.5 -79t-77.5 -53t-95.5 -19.5zM290 55q36 0 67.5 14t55.5 39t38 59t14 73t-14 73t-38 59t-55.5 39
t-67.5 14t-67.5 -14t-55.5 -39t-38 -59t-14 -73t14 -73t38 -58.5t55.5 -39t67.5 -14.5zM195 585q-19 0 -32 13t-13 32t13 32t32 13t32 -13t13 -32t-13 -32t-32 -13zM385 585q-19 0 -32 13t-13 32t13 32t32 13t32 -13t13 -32t-13 -32t-32 -13z" />
    <glyph glyph-name="uni04E8" unicode="&#x4e8;" horiz-adv-x="840" 
d="M420 -10q-75 0 -140.5 28t-114.5 77t-77 114.5t-28 140.5t28 140.5t77 114.5t114.5 77t140.5 28t140.5 -28t114.5 -77t77 -114.5t28 -140.5t-28 -140.5t-77 -114.5t-114.5 -77t-140.5 -28zM420 60q56 0 105.5 19.5t87.5 54t62 82.5t30 104h-570q6 -56 30 -104t62 -82.5
t87.5 -54t105.5 -19.5zM703 390q-7 54 -31.5 100t-62.5 79.5t-86.5 52t-102.5 18.5t-102.5 -18.5t-86.5 -52t-63 -79.5t-32 -100h567z" />
    <glyph glyph-name="uni04E9" unicode="&#x4e9;" 
d="M290 -10q-51 0 -95.5 19.5t-77.5 53t-52.5 79t-19.5 98.5q0 52 19.5 98t52.5 79.5t77.5 53t95.5 19.5t95.5 -19.5t77.5 -53t52.5 -79.5t19.5 -98q0 -53 -19.5 -98.5t-52.5 -79t-77.5 -53t-95.5 -19.5zM290 55q32 0 61 11.5t52.5 32t39 49t20.5 62.5h-346
q5 -34 20.5 -62.5t39 -49t52.5 -32t61 -11.5zM462 275q-5 30 -19.5 57t-37 48t-52 33t-63.5 12t-63.5 -12t-52 -33t-37.5 -48t-19 -57h344z" />
    </font>
</defs>
</svg>
