<?xml version="1.0" standalone="no"?>
<!DOCTYPE svg PUBLIC "-//W3C//DTD SVG 1.1//EN" "http://www.w3.org/Graphics/SVG/1.1/DTD/svg11.dtd" >
<svg xmlns="http://www.w3.org/2000/svg" xmlns:xlink="http://www.w3.org/1999/xlink" version="1.1">
<metadata>
Created by FontForge 20170731 at Tue Dec 10 10:28:40 2019
 By Aleksey,,,
Copyright (c) 2016-2019 by TypeType. Designers Ivan Gladkikh, Pavel Emelyanov. Technical designers Vika Usmanova, Olexa Volochay, Nadyr Rakhimov, Yuri Nakonechny. All rights reserved.
</metadata>
<defs>
<font id="TTNormsPro-Bold" horiz-adv-x="595" >
  <font-face 
    font-family="TT Norms Pro"
    font-weight="700"
    font-stretch="normal"
    units-per-em="1000"
    panose-1="2 0 8 3 3 0 0 2 0 4"
    ascent="800"
    descent="-200"
    x-height="490"
    cap-height="700"
    bbox="-580 -240 1438 1090"
    underline-thickness="50"
    underline-position="-150"
    unicode-range="U+000D-FB06"
  />
<missing-glyph horiz-adv-x="900" 
d="M100 284h45v-139h33v139h50v31h-128v126l19 -61h23l34 106l33 -106h23l54 170h-32l-34 -110l-35 110h-19l-35 -110l-31 103v157h700v-150h-110v-170h110v-91q-13 27 -50 27q-29 0 -44.5 -14.5t-15.5 -34.5q0 -22 13.5 -32t30 -15t30.5 -9.5t14 -16.5q0 -14 -9.5 -17.5
t-18.5 -3.5q-15 0 -21.5 7.5t-6.5 17.5h-33q0 -24 16.5 -39.5t44.5 -15.5q20 0 32.5 7.5t17.5 12.5v-163h-700v284zM328 143q38 0 60 25t22 61q0 37 -22.5 62t-59.5 25t-59.5 -25t-22.5 -62q0 -36 22 -61t60 -25zM328 174q-23 0 -37 16t-14 39q0 24 13.5 40t37.5 16
t37.5 -16t13.5 -40q0 -23 -14 -39t-37 -16zM549 315h-32v-106q0 -29 19.5 -47.5t48.5 -18.5t48 18.5t19 47.5v106h-32v-106q0 -15 -9 -25t-26 -10q-18 0 -27 11t-9 24v106zM344 380v62h24l35 -62h37l-40 67q36 16 36 50q0 21 -15.5 37t-41.5 16h-68v-170h33zM344 519h35
q10 0 17 -6t7 -17q0 -13 -8 -18t-16 -5h-35v46zM502 380v170h-33v-170h33zM800 262v-38q-11 10 -24 14.5t-24.5 8.5t-19.5 8t-8 12q0 9 7.5 14.5t18.5 5.5q10 0 18 -6.5t8 -18.5h24zM612 380v139h50v31h-132v-31h50v-139h32zM722 452h78v-41h-78v41zM722 519h78v-36h-78v36z
" />
    <glyph glyph-name="f_f" unicode="ff" horiz-adv-x="685" 
d="M95 355h-75v125h75v30q0 87 45 133.5t120 46.5q17 0 31.5 -2.5t25.5 -5.5q12 -4 23 -7v-125q-6 2 -13 5q-6 2 -14.5 3.5t-17.5 1.5q-30 0 -47.5 -18t-17.5 -52v-10h180v50q0 87 45 133.5t120 46.5q19 0 35.5 -2.5t28.5 -5.5q14 -4 26 -7v-125q-7 2 -16 5q-8 2 -18 3.5
t-21 1.5q-30 0 -47.5 -18t-17.5 -52v-30h110v-125h-110v-355h-135v355h-180v-355h-135v355z" />
    <glyph glyph-name="uniFB01" unicode="fi" horiz-adv-x="615" 
d="M95 355h-75v125h75v50q0 87 45 133.5t120 46.5q17 0 31.5 -2.5t25.5 -5.5q12 -4 23 -7v-125q-6 2 -13 5q-6 2 -14.5 3.5t-17.5 1.5q-30 0 -47.5 -18t-17.5 -52v-30h315v-480h-135v355h-180v-355h-135v355zM477 555q-32 0 -54.5 22.5t-22.5 52.5t23 52.5t55 22.5
t54.5 -22.5t22.5 -52.5t-23 -52.5t-55 -22.5z" />
    <glyph glyph-name="f_f_i" unicode="ffi" horiz-adv-x="930" 
d="M95 355h-75v125h75v30q0 87 45 133.5t120 46.5q17 0 31.5 -2.5t25.5 -5.5q12 -4 23 -7v-125q-6 2 -13 5q-6 2 -14.5 3.5t-17.5 1.5q-30 0 -47.5 -18t-17.5 -52v-10h180v50q0 87 45 133.5t120 46.5q17 0 31.5 -2.5t25.5 -5.5q12 -4 23 -7v-125q-6 2 -13 5q-6 2 -14.5 3.5
t-17.5 1.5q-30 0 -47.5 -18t-17.5 -52v-30h315v-480h-135v355h-180v-355h-135v355h-180v-355h-135v355zM792 555q-32 0 -54.5 22.5t-22.5 52.5t23 52.5t55 22.5t54.5 -22.5t22.5 -52.5t-23 -52.5t-55 -22.5z" />
    <glyph glyph-name=".notdef" horiz-adv-x="900" 
d="M100 284h45v-139h33v139h50v31h-128v126l19 -61h23l34 106l33 -106h23l54 170h-32l-34 -110l-35 110h-19l-35 -110l-31 103v157h700v-150h-110v-170h110v-91q-13 27 -50 27q-29 0 -44.5 -14.5t-15.5 -34.5q0 -22 13.5 -32t30 -15t30.5 -9.5t14 -16.5q0 -14 -9.5 -17.5
t-18.5 -3.5q-15 0 -21.5 7.5t-6.5 17.5h-33q0 -24 16.5 -39.5t44.5 -15.5q20 0 32.5 7.5t17.5 12.5v-163h-700v284zM328 143q38 0 60 25t22 61q0 37 -22.5 62t-59.5 25t-59.5 -25t-22.5 -62q0 -36 22 -61t60 -25zM328 174q-23 0 -37 16t-14 39q0 24 13.5 40t37.5 16
t37.5 -16t13.5 -40q0 -23 -14 -39t-37 -16zM549 315h-32v-106q0 -29 19.5 -47.5t48.5 -18.5t48 18.5t19 47.5v106h-32v-106q0 -15 -9 -25t-26 -10q-18 0 -27 11t-9 24v106zM344 380v62h24l35 -62h37l-40 67q36 16 36 50q0 21 -15.5 37t-41.5 16h-68v-170h33zM344 519h35
q10 0 17 -6t7 -17q0 -13 -8 -18t-16 -5h-35v46zM502 380v170h-33v-170h33zM800 262v-38q-11 10 -24 14.5t-24.5 8.5t-19.5 8t-8 12q0 9 7.5 14.5t18.5 5.5q10 0 18 -6.5t8 -18.5h24zM612 380v139h50v31h-132v-31h50v-139h32zM722 452h78v-41h-78v41zM722 519h78v-36h-78v36z
" />
    <glyph glyph-name=".null" horiz-adv-x="0" 
 />
    <glyph glyph-name=".null" horiz-adv-x="0" 
 />
    <glyph glyph-name="nonmarkingreturn" unicode="&#xd;" horiz-adv-x="0" 
 />
    <glyph glyph-name="space" unicode=" " horiz-adv-x="210" 
 />
    <glyph glyph-name="exclam" unicode="!" horiz-adv-x="320" 
d="M160 -10q-34 0 -57 23t-23 57t23 57t57 23t57 -23t23 -57t-23 -57t-57 -23zM80 700h160l-25 -485h-110z" />
    <glyph glyph-name="quotedbl" unicode="&#x22;" horiz-adv-x="425" 
d="M50 700h130v-245h-130v245zM245 700h130v-245h-130v245z" />
    <glyph glyph-name="numbersign" unicode="#" horiz-adv-x="750" 
d="M155 185h-135l20 100h135l25 130h-135l20 100h135l35 185h115l-35 -185h145l35 185h115l-35 -185h135l-20 -100h-135l-25 -130h135l-20 -100h-135l-35 -185h-115l35 185h-145l-35 -185h-115zM435 285l25 130h-145l-25 -130h145z" />
    <glyph glyph-name="dollar" unicode="$" horiz-adv-x="585" 
d="M235 -10q-55 8 -95 25t-67 35q-32 21 -53 45l100 100q18 -21 43 -38q21 -14 51.5 -25.5t70.5 -11.5q60 0 87.5 23t27.5 57q0 30 -26 47.5t-65 31.5t-84 29t-84 39.5t-65 63t-26 99.5q0 75 49 126t136 74v90h130v-90q39 -6 71.5 -20.5t55.5 -30.5q27 -18 48 -39l-100 -100
q-16 17 -35 30q-17 11 -41 20.5t-54 9.5q-57 0 -81 -20t-24 -50t26 -47.5t65 -31.5t84 -29t84 -39.5t65 -63t26 -99.5q0 -39 -14 -73.5t-39.5 -61.5t-60.5 -46.5t-76 -28.5v-90h-130v90z" />
    <glyph glyph-name="percent" unicode="%" horiz-adv-x="815" 
d="M565 700h125l-440 -700h-125zM615 -15q-36 0 -67 13t-54 35.5t-36 52.5t-13 64t13 64t36 52.5t54 35.5t67 13t67 -13t54 -35.5t36 -52.5t13 -64t-13 -64t-36 -52.5t-54 -35.5t-67 -13zM615 80q30 0 50 20t20 50t-20 50t-50 20t-50 -20t-20 -50t20 -50t50 -20zM200 385
q-36 0 -67 13t-54 35.5t-36 52.5t-13 64t13 64t36 52.5t54 35.5t67 13t67 -13t54 -35.5t36 -52.5t13 -64t-13 -64t-36 -52.5t-54 -35.5t-67 -13zM200 480q30 0 50 20t20 50t-20 50t-50 20t-50 -20t-20 -50t20 -50t50 -20z" />
    <glyph glyph-name="ampersand" unicode="&#x26;" horiz-adv-x="655" 
d="M260 -20q-51 0 -91.5 15t-69 41t-44 62t-15.5 77q0 49 20.5 85t46.5 61q30 28 68 49q-26 24 -45 51q-17 23 -31 54t-14 65q0 39 13.5 72t39 57t61.5 37.5t81 13.5q41 0 75 -13t58.5 -36t38 -54t13.5 -67q0 -42 -18.5 -75t-41.5 -56q-26 -27 -60 -49l110 -130q8 13 15 31
q5 15 10 36.5t5 47.5h125q0 -48 -11 -86.5t-24 -67.5q-16 -33 -35 -61q7 -9 18 -15q9 -6 22 -10.5t30 -4.5q10 0 18 2q4 1 7 3v-115q-7 -4 -17 -8q-19 -7 -43 -7q-32 0 -55.5 10t-39.5 22q-18 14 -31 33q-19 -20 -46 -35q-23 -14 -58.5 -24.5t-84.5 -10.5zM270 100
q23 0 40.5 6t31.5 14q15 9 28 20l-125 150q-19 -12 -33 -29q-12 -14 -22 -34.5t-10 -46.5q0 -34 24 -57t66 -23zM275 445q17 13 30 29q11 13 20.5 30t9.5 36q0 26 -16 43t-39 17q-26 0 -43 -17t-17 -43q0 -19 8 -36t19 -30q12 -16 28 -29z" />
    <glyph glyph-name="quotesingle" unicode="'" horiz-adv-x="230" 
d="M50 700h130v-245h-130v245z" />
    <glyph glyph-name="parenleft" unicode="(" horiz-adv-x="370" 
d="M255 -230q-53 57 -93 131q-17 31 -33.5 69.5t-29.5 82.5t-21 93.5t-8 103.5t8 103.5t21 93.5t29.5 82t33.5 70q40 74 93 131l105 -65q-41 -53 -73 -118q-27 -56 -49.5 -131t-22.5 -166t22.5 -166.5t49.5 -131.5q32 -65 73 -117l-105 -65v0z" />
    <glyph glyph-name="parenright" unicode=")" horiz-adv-x="370" 
d="M10 -165q40 52 72 117q27 56 50 131.5t23 166.5t-23 166t-50 131q-32 65 -72 118l105 65q52 -57 92 -131q17 -32 34 -70t30 -82t21 -93.5t8 -103.5t-8 -103.5t-21 -93.5t-30 -82.5t-34 -69.5q-40 -74 -92 -131z" />
    <glyph glyph-name="asterisk" unicode="*" horiz-adv-x="400" 
d="M55 420l85 90l-115 20l30 95l110 -45l-15 120h100l-15 -120l110 45l30 -95l-115 -20l85 -90l-80 -60l-65 105l-65 -105z" />
    <glyph glyph-name="plus" unicode="+" horiz-adv-x="525" 
d="M205 230h-170v125h170v170h115v-170h170v-125h-170v-170h-115v170z" />
    <glyph glyph-name="comma" unicode="," horiz-adv-x="240" 
d="M-15 -85l105 235l115 -65l-140 -215z" />
    <glyph glyph-name="hyphen" unicode="-" horiz-adv-x="435" 
d="M50 360h335v-125h-335v125z" />
    <glyph glyph-name="period" unicode="." horiz-adv-x="240" 
d="M120 -10q-34 0 -57 23t-23 57t23 57t57 23t57 -23t23 -57t-23 -57t-57 -23z" />
    <glyph glyph-name="slash" unicode="/" horiz-adv-x="425" 
d="M300 710h125l-300 -920h-125z" />
    <glyph glyph-name="zero" unicode="0" horiz-adv-x="700" 
d="M350 -15q-60 0 -114.5 25.5t-95.5 72.5t-65.5 115t-24.5 152t24.5 152t65.5 115t95.5 72.5t114.5 25.5t114.5 -25.5t95.5 -72.5t65.5 -115t24.5 -152t-24.5 -152t-65.5 -115t-95.5 -72.5t-114.5 -25.5zM350 125q28 0 55 14t48 42t34 70.5t13 98.5t-13 98.5t-34 70.5
t-48 42t-55 14t-55 -14t-48 -42t-34 -70.5t-13 -98.5t13 -98.5t34 -70.5t48 -42t55 -14z" />
    <glyph glyph-name="one" unicode="1" horiz-adv-x="390" 
d="M150 510h-120v95q42 5 69.5 20.5t44.5 32.5q19 19 31 42h125v-700h-150v510z" />
    <glyph glyph-name="two" unicode="2" horiz-adv-x="575" 
d="M30 0q0 82 25 139.5t63 98.5t82 70t82 55.5t63 54.5t25 67q0 38 -27.5 64t-72.5 26q-32 0 -55 -13.5t-37 -29.5q-17 -18 -28 -42l-120 60q19 46 52 82q14 15 33 30t43.5 27t54.5 19t67 7q56 0 101.5 -17t77.5 -46.5t49 -69.5t17 -87q0 -50 -16.5 -87t-43.5 -66t-60 -52.5
t-66.5 -46.5t-63.5 -47.5t-50 -55.5h300v-140h-495v0z" />
    <glyph glyph-name="three" unicode="3" horiz-adv-x="575" 
d="M275 -15q-66 0 -115.5 17t-82.5 38q-39 24 -67 55l100 100q18 -21 41 -38q20 -14 47.5 -25.5t61.5 -11.5q60 0 90 25.5t30 59.5t-28.5 59.5t-81.5 25.5h-80v130h70q45 0 70 23t25 57t-25 57t-70 23q-29 0 -51.5 -11t-39.5 -24q-19 -16 -34 -35l-100 100q25 29 60 52
q30 20 75 36.5t105 16.5q52 0 95.5 -16.5t74.5 -43.5t48 -62.5t17 -72.5q0 -44 -17.5 -72.5t-37.5 -45.5q-25 -20 -55 -32q37 -13 67 -37q13 -10 25 -23.5t21.5 -30.5t15.5 -38t6 -46q0 -41 -18 -79t-52 -67t-82 -46.5t-108 -17.5z" />
    <glyph glyph-name="four" unicode="4" horiz-adv-x="590" 
d="M345 125h-330v160l305 415h175v-435h80v-140h-80v-125h-150v125zM345 265v240l-175 -240h175z" />
    <glyph glyph-name="five" unicode="5" horiz-adv-x="605" 
d="M300 -15q-66 0 -115.5 17t-82.5 38q-39 24 -67 55l100 100q18 -21 41 -38q20 -14 47.5 -25.5t61.5 -11.5q60 0 92.5 30t32.5 75t-31.5 75t-88.5 30q-29 0 -50.5 -8.5t-35.5 -19.5q-17 -12 -29 -27l-105 15l25 410h425v-140h-295l-5 -125q11 7 27 12q13 5 31.5 9t41.5 4
q54 0 99.5 -17.5t77.5 -49t50 -74.5t18 -94t-19 -94.5t-53.5 -76t-83.5 -51t-109 -18.5z" />
    <glyph glyph-name="six" unicode="6" horiz-adv-x="610" 
d="M305 -15q-58 0 -106.5 19.5t-84 52.5t-55 77.5t-19.5 95.5q0 35 9.5 66.5t20.5 54.5q13 27 30 49l195 300h155l-150 -230l10 2t11 2t14 1q47 0 89.5 -19.5t75 -52.5t51.5 -77.5t19 -95.5t-19.5 -95.5t-55 -77.5t-84 -52.5t-106.5 -19.5zM305 120q49 0 79.5 30.5
t30.5 79.5t-30.5 79.5t-79.5 30.5t-79.5 -30.5t-30.5 -79.5t30.5 -79.5t79.5 -30.5z" />
    <glyph glyph-name="seven" unicode="7" horiz-adv-x="525" 
d="M345 560h-320v140h480v-130l-275 -570h-155z" />
    <glyph glyph-name="eight" unicode="8" horiz-adv-x="610" 
d="M305 -15q-60 0 -108 17.5t-82 47t-52 68.5t-18 82q0 47 17.5 80t39.5 54q26 25 58 41q-26 14 -45 35q-17 18 -31 45t-14 65q0 37 17 72.5t48 62.5t74 43.5t96 16.5q52 0 95.5 -16.5t74.5 -43.5t48 -62.5t17 -72.5q0 -38 -14 -65t-31 -45q-20 -21 -45 -35q31 -16 57 -41
q22 -21 40 -54t18 -80q0 -43 -18 -82t-52 -68.5t-82 -47t-108 -17.5zM305 120q49 0 77 26t28 64t-28 64t-77 26t-77 -26t-28 -64t28 -64t77 -26zM305 430q38 0 61.5 22.5t23.5 52.5t-23.5 52.5t-61.5 22.5t-61.5 -22.5t-23.5 -52.5t23.5 -52.5t61.5 -22.5z" />
    <glyph glyph-name="nine" unicode="9" horiz-adv-x="610" 
d="M310 230q-5 -2 -10 -3t-11 -1.5t-14 -0.5q-47 0 -89.5 19.5t-75 52.5t-51.5 77.5t-19 95.5t19.5 95.5t55 77.5t84 52.5t106.5 19.5t106.5 -19.5t84 -52.5t55 -77.5t19.5 -95.5q0 -36 -9.5 -67t-20.5 -54q-13 -27 -30 -49l-195 -300h-155zM305 360q49 0 79.5 30.5
t30.5 79.5t-30.5 79.5t-79.5 30.5t-79.5 -30.5t-30.5 -79.5t30.5 -79.5t79.5 -30.5z" />
    <glyph glyph-name="colon" unicode=":" horiz-adv-x="240" 
d="M120 -10q-34 0 -57 23t-23 57t23 57t57 23t57 -23t23 -57t-23 -57t-57 -23zM120 340q-34 0 -57 23t-23 57t23 57t57 23t57 -23t23 -57t-23 -57t-57 -23z" />
    <glyph glyph-name="semicolon" unicode=";" horiz-adv-x="240" 
d="M-15 -85l105 235l115 -65l-140 -215zM125 340q-34 0 -57 23t-23 57t23 57t57 23t57 -23t23 -57t-23 -57t-57 -23z" />
    <glyph glyph-name="less" unicode="&#x3c;" horiz-adv-x="510" 
d="M40 200v90l430 205v-130l-260 -120l260 -120v-130z" />
    <glyph glyph-name="equal" unicode="=" horiz-adv-x="495" 
d="M40 255h415v-115h-415v115zM40 450h415v-115h-415v115z" />
    <glyph glyph-name="greater" unicode="&#x3e;" horiz-adv-x="510" 
d="M40 125l260 120l-260 120v130l430 -205v-90l-430 -205v130z" />
    <glyph glyph-name="question" unicode="?" horiz-adv-x="545" 
d="M250 -10q-34 0 -57 23t-23 57t23 57t57 23t57 -23t23 -57t-23 -57t-57 -23zM190 215q-3 6 -5 13q-5 13 -5 32q0 34 13 59t32.5 44.5t42 35t42 30t32.5 30.5t13 36q0 26 -24.5 48t-65.5 22q-34 0 -57.5 -12.5t-38.5 -27.5q-18 -18 -29 -40l-130 60q18 46 52 82
q15 15 34.5 30t44.5 27t55.5 19t68.5 7q58 0 104.5 -16.5t78.5 -44.5t49.5 -65.5t17.5 -78.5q0 -42 -14.5 -72t-36 -52t-47 -39.5t-47 -35.5t-36 -39.5t-14.5 -51.5h-130z" />
    <glyph glyph-name="at" unicode="@" horiz-adv-x="880" 
d="M440 -145q-79 0 -149.5 31.5t-124 85.5t-85 125.5t-31.5 152.5t31.5 152.5t85 125.5t124 85.5t149.5 31.5q84 0 156.5 -30t125.5 -81t83 -119t30 -145q0 -51 -13.5 -90t-36.5 -65.5t-55.5 -40.5t-69.5 -14q-34 0 -57 10t-37 22q-17 14 -26 33h-5q-10 -19 -26 -33
q-14 -12 -35.5 -22t-53.5 -10q-34 0 -64 13.5t-52.5 38t-35.5 58.5t-13 75t13 75t35.5 58.5t52.5 38t64 13.5q23 0 39.5 -6t27.5 -14q13 -9 23 -20h5v35h95v-215q0 -26 16 -43t39 -17q15 0 28 6t22 20t14.5 37t5.5 57q0 58 -22 109t-61.5 89t-93.5 60t-118 22
q-60 0 -113 -23t-92 -63.5t-62 -95t-23 -118.5t23 -118.5t62 -95t92 -63.5t113 -23q43 0 76.5 9.5t56.5 20.5q27 13 47 30l55 -70q-26 -25 -61 -43q-30 -16 -73.5 -29t-100.5 -13zM435 155q34 0 57 24t23 66t-23.5 66t-56.5 24q-34 0 -57 -24t-23 -66t23 -66t57 -24z" />
    <glyph glyph-name="A" unicode="A" horiz-adv-x="720" 
d="M275 700h170l270 -700h-160l-60 160h-270l-60 -160h-160zM445 295l-83 230h-4l-83 -230h170z" />
    <glyph glyph-name="B" unicode="B" horiz-adv-x="690" 
d="M90 700h295q52 0 94 -15t71 -40t44.5 -59t15.5 -71q0 -42 -15 -69.5t-33 -44.5q-21 -20 -47 -31q36 -11 65 -34q24 -20 44.5 -52.5t20.5 -83.5q0 -41 -16.5 -77.5t-47.5 -63.5t-75.5 -43t-100.5 -16h-315v700zM395 130q45 0 70 23.5t25 61.5t-25 61.5t-70 23.5h-155v-170
h155zM375 430q38 0 59 20t21 50t-21 50t-59 20h-135v-140h135z" />
    <glyph glyph-name="C" unicode="C" horiz-adv-x="745" 
d="M425 -15q-81 0 -150.5 29t-120.5 78.5t-80 116t-29 141.5t29 141.5t80 116t120.5 78.5t150.5 29q73 0 128.5 -22t92.5 -48q43 -31 74 -70l-100 -100q-22 28 -51 50q-25 19 -61 34.5t-83 15.5t-88 -17.5t-71.5 -48t-48 -71.5t-17.5 -88t17.5 -88t48 -71.5t71.5 -48
t88 -17.5q49 0 86 15.5t63 34.5q30 22 51 50l100 -100q-31 -39 -75 -70q-38 -26 -94 -48t-131 -22z" />
    <glyph glyph-name="D" unicode="D" horiz-adv-x="760" 
d="M90 700h255q81 0 148.5 -27.5t117 -74.5t77 -111t27.5 -137t-27.5 -137t-77 -111t-117 -74.5t-148.5 -27.5h-255v700zM345 140q47 0 86.5 16t68 44t44.5 66.5t16 83.5t-16 83.5t-44.5 66.5t-68 44t-86.5 16h-105v-420h105z" />
    <glyph glyph-name="E" unicode="E" horiz-adv-x="665" 
d="M90 700h520v-140h-370v-135h290v-135h-290v-150h380v-140h-530v700z" />
    <glyph glyph-name="F" unicode="F" horiz-adv-x="640" 
d="M90 700h515v-140h-365v-165h285v-140h-285v-255h-150v700z" />
    <glyph glyph-name="G" unicode="G" horiz-adv-x="795" 
d="M425 -15q-81 0 -150.5 29t-120.5 78.5t-80 116t-29 141.5t29 141.5t80 116t120.5 78.5t150.5 29q73 0 128.5 -22t92.5 -48q43 -31 74 -70l-100 -100q-22 28 -51 50q-25 19 -61 34.5t-83 15.5t-88 -17.5t-71.5 -48t-48 -71.5t-17.5 -88t17.5 -88t48 -71.5t71.5 -48
t88 -17.5q38 0 66.5 8t48.5 19q23 12 40 28v85h-130v120h280v-265q-33 -38 -78 -68q-38 -26 -95 -46.5t-132 -20.5z" />
    <glyph glyph-name="H" unicode="H" horiz-adv-x="780" 
d="M90 700h150v-275h300v275h150v-700h-150v285h-300v-285h-150v700z" />
    <glyph glyph-name="I" unicode="I" horiz-adv-x="330" 
d="M90 700h150v-700h-150v700z" />
    <glyph glyph-name="J" unicode="J" horiz-adv-x="525" 
d="M195 -15q-55 0 -93.5 14t-63.5 31q-29 19 -48 45l100 100q11 -14 27 -25q13 -10 31.5 -17.5t41.5 -7.5q45 0 72.5 28.5t27.5 81.5v465h150v-465q0 -56 -18 -102t-50 -79t-77.5 -51t-99.5 -18z" />
    <glyph glyph-name="K" unicode="K" horiz-adv-x="700" 
d="M90 700h150v-300l270 300h180l-260 -290l280 -410h-175l-205 300l-90 -95v-205h-150v700z" />
    <glyph glyph-name="L" unicode="L" horiz-adv-x="585" 
d="M90 700h150v-560h325v-140h-475v700z" />
    <glyph glyph-name="M" unicode="M" horiz-adv-x="930" 
d="M90 700h135l240 -300l240 300h135v-700h-150v460l-225 -280l-225 280v-460h-150v700z" />
    <glyph glyph-name="N" unicode="N" horiz-adv-x="805" 
d="M90 700h135l340 -435v435h150v-700h-135l-340 435v-435h-150v700z" />
    <glyph glyph-name="O" unicode="O" horiz-adv-x="850" 
d="M425 -15q-81 0 -150.5 29t-120.5 78.5t-80 116t-29 141.5t29 141.5t80 116t120.5 78.5t150.5 29t150.5 -29t120.5 -78.5t80 -116t29 -141.5t-29 -141.5t-80 -116t-120.5 -78.5t-150.5 -29zM425 125q47 0 88 17.5t71.5 48t48 71.5t17.5 88t-17.5 88t-48 71.5t-71.5 48
t-88 17.5t-88 -17.5t-71.5 -48t-48 -71.5t-17.5 -88t17.5 -88t48 -71.5t71.5 -48t88 -17.5z" />
    <glyph glyph-name="P" unicode="P" horiz-adv-x="680" 
d="M90 700h295q56 0 102 -17.5t79 -49t51 -74.5t18 -94t-18 -94t-51 -74.5t-79 -49t-102 -17.5h-145v-230h-150v700zM380 370q45 0 72.5 26.5t27.5 68.5t-27.5 68.5t-72.5 26.5h-140v-190h140z" />
    <glyph glyph-name="Q" unicode="Q" horiz-adv-x="850" 
d="M765 -170q-79 0 -134 25t-90 55q-40 35 -66 80q-6 -2 -14 -3q-7 -1 -16 -1.5t-20 -0.5q-81 0 -150.5 29t-120.5 78.5t-80 116t-29 141.5t29 141.5t80 116t120.5 78.5t150.5 29t150.5 -29t120.5 -78.5t80 -116t29 -141.5q0 -43 -8.5 -79.5t-22 -67t-31.5 -54.5t-36 -43
q-43 -44 -97 -71q17 -21 41 -38q20 -14 49.5 -25.5t69.5 -11.5q9 0 17.5 0.5t14.5 1.5q7 1 13 3v-130q-6 -2 -14 -3q-7 -1 -16 -1.5t-20 -0.5zM425 125q47 0 88 17.5t71.5 48t48 71.5t17.5 88t-17.5 88t-48 71.5t-71.5 48t-88 17.5t-88 -17.5t-71.5 -48t-48 -71.5t-17.5 -88
t17.5 -88t48 -71.5t71.5 -48t88 -17.5z" />
    <glyph glyph-name="R" unicode="R" horiz-adv-x="705" 
d="M90 700h310q56 0 101.5 -17t77.5 -48t49 -74.5t17 -95.5q0 -60 -18.5 -100t-41.5 -63q-26 -27 -60 -42l145 -260h-165l-125 230h-140v-230h-150v700zM395 370q42 0 68.5 26.5t26.5 68.5t-26.5 68.5t-68.5 26.5h-155v-190h155z" />
    <glyph glyph-name="S" unicode="S" horiz-adv-x="585" 
d="M290 -15q-68 0 -118.5 17t-84.5 38q-40 24 -67 55l100 100q18 -21 43 -38q21 -14 51.5 -25.5t70.5 -11.5q60 0 87.5 23t27.5 57q0 30 -26 47.5t-65 31.5t-84 29t-84 39.5t-65 63t-26 99.5q0 41 17.5 78.5t50 65.5t80 44.5t107.5 16.5q58 0 102.5 -15t73.5 -33
q34 -21 59 -47l-100 -100q-16 17 -35 30q-17 11 -41 20.5t-54 9.5q-57 0 -81 -20t-24 -50t26 -47.5t65 -31.5t84 -29t84 -39.5t65 -63t26 -99.5q0 -43 -18 -82t-52.5 -68.5t-83.5 -47t-111 -17.5z" />
    <glyph glyph-name="T" unicode="T" horiz-adv-x="590" 
d="M220 560h-200v140h550v-140h-200v-560h-150v560z" />
    <glyph glyph-name="U" unicode="U" horiz-adv-x="780" 
d="M390 -15q-68 0 -124 22.5t-96 62.5t-62.5 96t-22.5 124v410h150v-410q0 -38 11.5 -68t32 -52t49 -33.5t62.5 -11.5t62.5 11.5t49 33.5t32 52t11.5 68v410h150v-410q0 -68 -22.5 -124t-62.5 -96t-96.5 -62.5t-123.5 -22.5z" />
    <glyph glyph-name="V" unicode="V" horiz-adv-x="720" 
d="M15 700h160l183 -515h4l183 515h160l-260 -700h-170z" />
    <glyph glyph-name="W" unicode="W" horiz-adv-x="1070" 
d="M15 700h155l145 -470h5l145 470h140l145 -470h5l145 470h155l-230 -700h-145l-142 455h-6l-142 -455h-145z" />
    <glyph glyph-name="X" unicode="X" horiz-adv-x="680" 
d="M240 365l-220 335h175l143 -230h4l143 230h175l-220 -335l240 -365h-175l-163 260h-4l-163 -260h-175z" />
    <glyph glyph-name="Y" unicode="Y" horiz-adv-x="670" 
d="M260 250l-265 450h175l163 -300h4l163 300h175l-265 -450v-250h-150v250z" />
    <glyph glyph-name="Z" unicode="Z" horiz-adv-x="645" 
d="M45 140l355 420h-340v140h530v-140l-355 -420h365v-140h-555v140z" />
    <glyph glyph-name="bracketleft" unicode="[" horiz-adv-x="365" 
d="M80 710h255v-125h-115v-670h115v-125h-255v920z" />
    <glyph glyph-name="backslash" unicode="\" horiz-adv-x="425" 
d="M0 710h125l300 -920h-125z" />
    <glyph glyph-name="bracketright" unicode="]" horiz-adv-x="365" 
d="M30 -85h115v670h-115v125h255v-920h-255v125z" />
    <glyph glyph-name="asciicircum" unicode="^" horiz-adv-x="430" 
d="M165 700h100l135 -300h-115l-70 160l-70 -160h-115z" />
    <glyph glyph-name="underscore" unicode="_" horiz-adv-x="345" 
d="M-10 -85h365v-125h-365v125z" />
    <glyph glyph-name="grave" unicode="`" horiz-adv-x="280" 
d="M30 705h140l80 -150h-110z" />
    <glyph glyph-name="a" unicode="a" horiz-adv-x="540" 
d="M190 -10q-34 0 -61.5 10.5t-47 29.5t-30.5 44.5t-11 55.5q0 60 38.5 102.5t106.5 54.5l155 28q-4 26 -25.5 45.5t-59.5 19.5q-26 0 -46.5 -8.5t-34.5 -19.5q-17 -12 -29 -27l-80 80q21 26 51 47q26 18 63 33t86 15q47 0 85.5 -15t66.5 -41.5t43 -62t15 -76.5v-305h-135
v60h-5q-16 -20 -37 -35q-18 -14 -45.5 -24.5t-62.5 -10.5zM235 100q45 0 75 30.5t30 79.5v10l-110 -20q-26 -5 -40.5 -18t-14.5 -32q0 -23 15 -36.5t45 -13.5z" />
    <glyph glyph-name="b" unicode="b" horiz-adv-x="620" 
d="M365 -10q-40 0 -68.5 12.5t-48.5 27.5q-23 18 -38 40h-5v-70h-135v700h135v-280h5q15 22 38 40q20 15 48.5 27.5t68.5 12.5q43 0 83 -19t70.5 -52.5t48.5 -80.5t18 -103t-18 -103t-48.5 -81t-70.5 -52.5t-83 -18.5zM325 115q26 0 49 10t40 27t26.5 41t9.5 52t-9.5 52
t-26.5 41t-40 27t-49 10t-49 -10t-40 -27t-26.5 -41t-9.5 -52t9.5 -52t26.5 -41t40 -27t49 -10z" />
    <glyph glyph-name="c" unicode="c" horiz-adv-x="520" 
d="M295 -10q-54 0 -101.5 20t-83 55t-55.5 81t-20 99q0 52 20 98.5t55.5 81.5t83 55t101.5 20q53 0 91 -15.5t64 -34.5q30 -22 50 -50l-85 -85q-14 17 -32 30q-16 11 -38 20.5t-50 9.5q-26 0 -49 -10t-40 -27t-26.5 -41t-9.5 -52t9.5 -52t26.5 -41t40 -27t49 -10
q28 0 50 9.5t38 20.5q18 13 32 30l85 -85q-20 -28 -50 -50q-26 -19 -64 -34.5t-91 -15.5z" />
    <glyph glyph-name="d" unicode="d" horiz-adv-x="620" 
d="M255 -10q-43 0 -83 18.5t-70.5 52.5t-48.5 81t-18 103t18 103t48.5 80.5t70.5 52.5t83 19q39 0 68 -12.5t49 -27.5q23 -18 38 -40h5v280h135v-700h-135v70h-5q-15 -22 -38 -40q-20 -15 -49 -27.5t-68 -12.5zM295 115q26 0 49 10t40 27t26.5 41t9.5 52t-9.5 52t-26.5 41
t-40 27t-49 10t-49 -10t-40 -27t-26.5 -41t-9.5 -52t9.5 -52t26.5 -41t40 -27t49 -10z" />
    <glyph glyph-name="e" unicode="e" horiz-adv-x="570" 
d="M295 -10q-54 0 -101.5 20t-83 55t-55.5 81t-20 99q0 52 20 98.5t55 81.5t81 55t99 20q51 0 95.5 -19.5t77.5 -52.5t52.5 -77.5t19.5 -95.5q0 -14 -1 -24.5t-2 -18.5q-1 -10 -2 -17h-355q11 -34 42.5 -59.5t87.5 -25.5q32 0 56 8t41 19q19 12 33 28l70 -95
q-22 -22 -54 -40q-27 -15 -66 -27.5t-90 -12.5zM395 295q-11 34 -39.5 59.5t-70.5 25.5t-70.5 -25.5t-39.5 -59.5h220z" />
    <glyph glyph-name="f" unicode="f" horiz-adv-x="370" 
d="M95 355h-75v125h75v50q0 87 45 133.5t120 46.5q19 0 35.5 -2.5t28.5 -5.5q14 -4 26 -7v-125q-7 2 -16 5q-8 2 -18 3.5t-21 1.5q-30 0 -47.5 -18t-17.5 -52v-30h110v-125h-110v-355h-135v355z" />
    <glyph glyph-name="g" unicode="g" horiz-adv-x="600" 
d="M270 -210q-55 0 -95 15.5t-67 34.5q-32 22 -53 50l85 85q15 -17 35 -30q17 -11 41 -20.5t54 -9.5q28 0 52 10t41 27.5t27 42.5t10 55v40h-5q-15 -22 -36 -40q-18 -15 -46.5 -27.5t-67.5 -12.5q-41 0 -79 18t-67 50t-46.5 77.5t-17.5 99.5t17.5 99.5t46.5 77.5t67 50
t79 18q39 0 67.5 -12.5t46.5 -27.5q21 -18 36 -40h5v70h135v-440q0 -56 -19.5 -104t-55 -82.5t-84 -54t-106.5 -19.5zM285 135q49 0 82 33.5t33 86.5t-33 86.5t-82 33.5t-82 -33.5t-33 -86.5t33 -86.5t82 -33.5z" />
    <glyph glyph-name="h" unicode="h" horiz-adv-x="600" 
d="M70 700h135v-280h5q16 22 37 40q18 15 45 27.5t63 12.5q37 0 70 -14.5t57.5 -41t38.5 -64.5t14 -85v-295h-135v275q0 45 -24 70t-66 25q-45 0 -75 -30.5t-30 -79.5v-260h-135v700z" />
    <glyph glyph-name="i" unicode="i" horiz-adv-x="265" 
d="M65 490h135v-490h-135v490zM132 555q-32 0 -54.5 22.5t-22.5 52.5t23 52.5t55 22.5t54.5 -22.5t22.5 -52.5t-23 -52.5t-55 -22.5z" />
    <glyph glyph-name="j" unicode="j" horiz-adv-x="265" 
d="M35 -210q-19 0 -35.5 2t-28.5 5q-14 4 -26 8v125q7 -3 16 -5q17 -5 39 -5q30 0 47.5 18t17.5 52v500h135v-520q0 -87 -45 -133.5t-120 -46.5zM132 555q-32 0 -54.5 22.5t-22.5 52.5t23 52.5t55 22.5t54.5 -22.5t22.5 -52.5t-23 -52.5t-55 -22.5z" />
    <glyph glyph-name="k" unicode="k" horiz-adv-x="545" 
d="M70 700h135v-410l175 200h160l-180 -205l190 -285h-155l-125 190l-65 -75v-115h-135v700z" />
    <glyph glyph-name="l" unicode="l" horiz-adv-x="275" 
d="M70 700h135v-700h-135v700z" />
    <glyph glyph-name="m" unicode="m" horiz-adv-x="885" 
d="M65 490h135v-70h5q13 22 32 40q17 15 42 27.5t61 12.5q39 0 67 -13.5t45 -29.5q20 -18 33 -42h5q17 24 41 42q20 16 49.5 29.5t69.5 13.5q36 0 67 -13.5t54 -39t36 -61.5t13 -81v-305h-135v285q0 42 -21 63.5t-59 21.5q-42 0 -68.5 -27.5t-26.5 -72.5v-270h-135v285
q0 42 -21 63.5t-59 21.5q-42 0 -68.5 -27.5t-26.5 -72.5v-270h-135v490z" />
    <glyph glyph-name="n" unicode="n" 
d="M65 490h135v-70h5q16 22 37 40q18 15 45 27.5t63 12.5q37 0 70 -14.5t57.5 -41t38.5 -64.5t14 -85v-295h-135v275q0 45 -24 70t-66 25q-45 0 -75 -30.5t-30 -79.5v-260h-135v490z" />
    <glyph glyph-name="o" unicode="o" horiz-adv-x="590" 
d="M295 -10q-54 0 -101.5 20t-83 55t-55.5 81t-20 99q0 52 20 98.5t55.5 81.5t83 55t101.5 20t101.5 -20t83 -55t55.5 -81.5t20 -98.5q0 -53 -20 -99t-55.5 -81t-83 -55t-101.5 -20zM295 115q26 0 49 10t40 27t26.5 41t9.5 52t-9.5 52t-26.5 41t-40 27t-49 10t-49 -10
t-40 -27t-26.5 -41t-9.5 -52t9.5 -52t26.5 -41t40 -27t49 -10z" />
    <glyph glyph-name="p" unicode="p" horiz-adv-x="615" 
d="M65 490h135v-70h5q15 22 38 40q20 15 48.5 27.5t68.5 12.5q43 0 83 -19t70.5 -52.5t48.5 -80.5t18 -103t-18 -103t-48.5 -81t-70.5 -52.5t-83 -18.5q-40 0 -68.5 12.5t-48.5 27.5q-23 18 -38 40h-5v-280h-135v700zM320 115q26 0 49 10t40 27t26.5 41t9.5 52t-9.5 52
t-26.5 41t-40 27t-49 10t-49 -10t-40 -27t-26.5 -41t-9.5 -52t9.5 -52t26.5 -41t40 -27t49 -10z" />
    <glyph glyph-name="q" unicode="q" horiz-adv-x="615" 
d="M415 70h-5q-15 -22 -38 -40q-20 -15 -49 -27.5t-68 -12.5q-43 0 -83 18.5t-70.5 52.5t-48.5 81t-18 103t18 103t48.5 80.5t70.5 52.5t83 19q39 0 68 -12.5t49 -27.5q23 -18 38 -40h5v70h135v-700h-135v280zM295 115q26 0 49 10t40 27t26.5 41t9.5 52t-9.5 52t-26.5 41
t-40 27t-49 10t-49 -10t-40 -27t-26.5 -41t-9.5 -52t9.5 -52t26.5 -41t40 -27t49 -10z" />
    <glyph glyph-name="r" unicode="r" horiz-adv-x="380" 
d="M65 490h135v-70h5q16 22 37 40q18 15 45 27.5t63 12.5h10v-145q-5 1 -11 2t-14.5 2t-19.5 1q-49 0 -82 -35t-33 -95v-230h-135v490z" />
    <glyph glyph-name="s" unicode="s" horiz-adv-x="455" 
d="M225 -10q-51 0 -90 14t-66 31q-32 19 -54 45l80 85q15 -16 35 -28q17 -11 41 -19t54 -8q34 0 47 10t13 25q0 14 -18.5 23.5t-46.5 18.5t-60 21t-60 30t-46.5 45t-18.5 67q0 30 13 57t37.5 48t61 33t83.5 12t82.5 -12t59.5 -26q28 -17 48 -37l-80 -85q-12 11 -29 20
q-14 8 -34.5 14t-46.5 6t-38 -9.5t-12 -20.5q0 -14 18.5 -23.5t46.5 -18.5t60 -21t60 -30t46.5 -45t18.5 -67q0 -32 -13 -60t-39 -49t-64 -33.5t-89 -12.5z" />
    <glyph glyph-name="t" unicode="t" horiz-adv-x="400" 
d="M270 -10q-75 0 -120 46.5t-45 133.5v185h-85v125h45q55 0 55 60v90h120v-150h110v-125h-110v-165q0 -34 17.5 -52t47.5 -18q22 0 39 5q9 2 16 5v-125q-12 -4 -26 -8q-12 -3 -28.5 -5t-35.5 -2z" />
    <glyph glyph-name="u" unicode="u" 
d="M245 -10q-38 0 -70.5 14.5t-57 41t-38.5 64.5t-14 85v295h135v-275q0 -45 24 -70t66 -25q45 0 75 30.5t30 79.5v260h135v-490h-135v70h-5q-16 -22 -37 -40q-18 -15 -45.5 -27.5t-62.5 -12.5z" />
    <glyph glyph-name="v" unicode="v" horiz-adv-x="510" 
d="M-5 490h145l113 -330h4l113 330h145l-185 -490h-150z" />
    <glyph glyph-name="w" unicode="w" horiz-adv-x="770" 
d="M-5 490h145l90 -290h5l95 290h110l95 -290h5l90 290h145l-172 -490h-123l-93 285h-4l-93 -285h-123z" />
    <glyph glyph-name="x" unicode="x" horiz-adv-x="510" 
d="M170 250l-165 240h155l93 -150h4l93 150h155l-165 -240l175 -250h-155l-103 160h-4l-103 -160h-155z" />
    <glyph glyph-name="y" unicode="y" horiz-adv-x="510" 
d="M125 -210q-19 0 -35.5 2t-28.5 5q-14 4 -26 8v125q7 -3 16 -5q17 -5 39 -5q34 0 54 17t31 43l10 25l-190 485h145l115 -325h5l110 325h145l-200 -530q-31 -83 -76.5 -126.5t-113.5 -43.5z" />
    <glyph glyph-name="z" unicode="z" horiz-adv-x="500" 
d="M35 125l240 240h-230v125h410v-125l-240 -240h250v-125h-430v125z" />
    <glyph glyph-name="braceleft" unicode="{" horiz-adv-x="380" 
d="M275 -210q-83 0 -126.5 43t-43.5 122v170q0 30 -17.5 47.5t-47.5 17.5h-10v120h10q30 0 47.5 17.5t17.5 47.5v170q0 79 43.5 122t126.5 43h75v-125h-45q-60 0 -60 -60v-165q0 -34 -12.5 -55.5t-27.5 -33.5q-18 -14 -40 -21q22 -7 40 -21q15 -12 27.5 -33.5t12.5 -55.5
v-165q0 -60 60 -60h45v-125h-75v0z" />
    <glyph glyph-name="bar" unicode="|" horiz-adv-x="380" 
d="M120 710h140v-920h-140v920z" />
    <glyph glyph-name="braceright" unicode="}" horiz-adv-x="380" 
d="M30 -85h45q60 0 60 60v165q0 34 12.5 55.5t27.5 33.5q18 14 40 21q-22 7 -40 21q-15 12 -27.5 33.5t-12.5 55.5v165q0 60 -60 60h-45v125h75q83 0 126.5 -43t43.5 -122v-170q0 -30 17.5 -47.5t47.5 -17.5h10v-120h-10q-30 0 -47.5 -17.5t-17.5 -47.5v-170
q0 -79 -43.5 -122t-126.5 -43h-75v125z" />
    <glyph glyph-name="asciitilde" unicode="~" horiz-adv-x="570" 
d="M390 205q-36 0 -61.5 9.5t-46.5 20.5t-40.5 20.5t-41.5 9.5q-21 0 -36 -8.5t-25 -19.5q-11 -12 -19 -27l-90 70q13 29 34 52q18 20 46 36.5t70 16.5q36 0 61.5 -9.5t46.5 -20.5t40 -20.5t42 -9.5q20 0 35.5 8t25.5 19q11 12 19 28l90 -70q-13 -30 -34 -53
q-18 -20 -46 -36t-70 -16z" />
    <glyph glyph-name="nonbreakingspace" unicode="&#xa0;" horiz-adv-x="210" 
 />
    <glyph glyph-name="exclamdown" unicode="&#xa1;" horiz-adv-x="320" 
d="M105 275h110l25 -485h-160zM160 340q-34 0 -57 23t-23 57t23 57t57 23t57 -23t23 -57t-23 -57t-57 -23z" />
    <glyph glyph-name="cent" unicode="&#xa2;" horiz-adv-x="520" 
d="M230 0q-38 7 -73 28t-62 53t-43.5 73.5t-16.5 90.5t16.5 90.5t43.5 73.5t62 52.5t73 28.5v100h120v-95q35 -8 63 -23.5t48 -31.5q23 -18 39 -40l-85 -85q-14 17 -32 30q-16 11 -38 20.5t-50 9.5q-26 0 -49 -10t-40 -27t-26.5 -41t-9.5 -52t9.5 -52t26.5 -41t40 -27
t49 -10q28 0 50 9.5t38 20.5q18 13 32 30l85 -85q-16 -22 -39 -40q-20 -16 -48 -31.5t-63 -23.5v-95h-120v100z" />
    <glyph glyph-name="sterling" unicode="&#xa3;" horiz-adv-x="560" 
d="M30 130q34 0 52 17.5t18 47.5v75h-65v120h65v90q0 52 17 95.5t47.5 74.5t72.5 48t93 17q54 0 93.5 -14t65.5 -31q30 -20 51 -45l-100 -95q-11 14 -25 25q-12 9 -29.5 17t-40.5 8q-49 0 -77 -27.5t-28 -72.5v-90h175v-120h-175v-75q0 -17 -4 -29t-9 -20q-5 -10 -12 -16
h325v-130h-510v130z" />
    <glyph glyph-name="currency" unicode="&#xa4;" horiz-adv-x="510" 
d="M40 185l60 60q-8 12 -13 26q-5 12 -8.5 28.5t-3.5 35.5t3.5 35.5t8.5 28.5q5 14 13 26l-60 60l60 60l60 -60q13 8 29 15q13 5 30 10t36 5t35.5 -5t30.5 -10q15 -7 29 -15l60 60l60 -60l-60 -60q7 -12 12 -26q5 -12 9 -28.5t4 -35.5t-4 -35.5t-9 -28.5q-5 -14 -12 -26
l60 -60l-60 -60l-60 60q-14 -9 -29 -15q-14 -6 -30.5 -10.5t-35.5 -4.5t-36 4.5t-30 10.5q-16 6 -29 15l-60 -60zM255 240q42 0 68.5 28.5t26.5 66.5t-26.5 66.5t-68.5 28.5t-68.5 -28.5t-26.5 -66.5t26.5 -66.5t68.5 -28.5z" />
    <glyph glyph-name="yen" unicode="&#xa5;" horiz-adv-x="670" 
d="M260 95h-150v100h150v60h-150v100h90l-205 345h175l163 -300h4l163 300h175l-205 -345h90v-100h-150v-60h150v-100h-150v-95h-150v95z" />
    <glyph glyph-name="brokenbar" unicode="&#xa6;" horiz-adv-x="380" 
d="M120 170h140v-380h-140v380zM120 710h140v-380h-140v380z" />
    <glyph glyph-name="section" unicode="&#xa7;" horiz-adv-x="560" 
d="M265 -115q-51 0 -90 14.5t-66 32.5q-32 21 -54 48l80 85q17 -17 36 -30q17 -11 38 -20.5t46 -9.5q45 0 65 15.5t20 34.5q0 20 -21.5 34.5t-53.5 28.5t-70 29.5t-70 38t-53.5 53.5t-21.5 76q0 35 14.5 60.5t32.5 42.5q21 19 48 32q-20 11 -35 27q-14 14 -24.5 34t-10.5 49
q0 32 13 60t39 49t64 33.5t89 12.5q49 0 85 -12t59 -26q27 -17 46 -37l-80 -85q-13 11 -28 20q-14 8 -31.5 14t-40.5 6q-38 0 -54 -13t-16 -32q0 -18 21.5 -30.5t53.5 -25.5t70 -28t70 -37t53.5 -53t21.5 -76q0 -36 -15 -61t-33 -42q-21 -19 -47 -32q19 -11 35 -28
q13 -14 24 -37t11 -55t-14 -61t-41.5 -51t-69 -35t-95.5 -13zM330 225q12 6 22 16q8 8 15.5 21.5t7.5 32.5q0 24 -23 42t-50 30q-32 14 -72 23q-13 -6 -23 -16q-8 -8 -15 -21.5t-7 -32.5q0 -25 22.5 -42.5t49.5 -29.5q32 -14 73 -23z" />
    <glyph glyph-name="dieresis" unicode="&#xa8;" horiz-adv-x="430" 
d="M105 555q-30 0 -52.5 22.5t-22.5 52.5t22.5 52.5t52.5 22.5t52.5 -22.5t22.5 -52.5t-22.5 -52.5t-52.5 -22.5zM325 555q-30 0 -52.5 22.5t-22.5 52.5t22.5 52.5t52.5 22.5t52.5 -22.5t22.5 -52.5t-22.5 -52.5t-52.5 -22.5z" />
    <glyph glyph-name="copyright" unicode="&#xa9;" horiz-adv-x="850" 
d="M425 -20q-79 0 -147.5 29t-119 79t-79.5 117.5t-29 144.5t29 144.5t79.5 117.5t119 79t147.5 29t147.5 -29t119 -79t79.5 -117.5t29 -144.5t-29 -144.5t-79.5 -117.5t-119 -79t-147.5 -29zM425 60q58 0 110 23t91 62t61.5 92t22.5 113t-22.5 113t-61.5 92t-91 62t-110 23
t-110 -23t-91 -62t-61.5 -92t-22.5 -113t22.5 -113t61.5 -92t91 -62t110 -23zM435 155q-43 0 -79.5 15t-63.5 41t-42 62t-15 77t15 76.5t42 62t63.5 41.5t79.5 15q42 0 71.5 -12t49.5 -26q23 -17 39 -37l-60 -60q-9 12 -23 22q-12 8 -30 15.5t-42 7.5q-49 0 -79.5 -30
t-30.5 -75t30.5 -75t79.5 -30q24 0 42 7t30 15q14 10 23 23l60 -60q-16 -21 -39 -38q-20 -14 -49.5 -25.5t-71.5 -11.5z" />
    <glyph glyph-name="ordfeminine" unicode="&#xaa;" horiz-adv-x="360" 
d="M135 385q-49 0 -77 26.5t-28 68.5q0 34 27.5 60.5t74.5 34.5l98 15q0 15 -14.5 27.5t-40.5 12.5q-19 0 -33 -5t-23 -10q-11 -7 -19 -15l-55 50q13 17 32 30q17 11 42 20.5t61 9.5q68 0 104 -35t36 -95v-190h-90v40q-9 -13 -23 -23q-12 -8 -30 -15t-42 -7zM160 455
q13 0 25.5 6t22.5 16t16 22.5t6 25.5v10l-75 -15q-15 -3 -25 -13.5t-10 -21.5t10.5 -20.5t29.5 -9.5z" />
    <glyph glyph-name="guillemotleft" unicode="&#xab;" horiz-adv-x="550" 
d="M35 240l125 180h135l-125 -180l125 -180h-135zM255 240l125 180h135l-125 -180l125 -180h-135z" />
    <glyph glyph-name="logicalnot" unicode="&#xac;" horiz-adv-x="485" 
d="M320 290h-280v120h405v-245h-125v125z" />
    <glyph glyph-name="uni00AD" unicode="&#xad;" horiz-adv-x="435" 
d="M50 360h335v-125h-335v125z" />
    <glyph glyph-name="registered" unicode="&#xae;" horiz-adv-x="850" 
d="M425 -20q-79 0 -147.5 29t-119 79t-79.5 117.5t-29 144.5t29 144.5t79.5 117.5t119 79t147.5 29t147.5 -29t119 -79t79.5 -117.5t29 -144.5t-29 -144.5t-79.5 -117.5t-119 -79t-147.5 -29zM425 60q58 0 110 23t91 62t61.5 92t22.5 113t-22.5 113t-61.5 92t-91 62t-110 23
t-110 -23t-91 -62t-61.5 -92t-22.5 -113t22.5 -113t61.5 -92t91 -62t110 -23zM285 540h165q30 0 55 -9.5t42.5 -26.5t27.5 -40t10 -49q0 -29 -11 -47.5t-24 -30.5q-16 -14 -35 -22l85 -155h-105l-65 130h-50v-130h-95v380zM445 375q40 0 40 40t-40 40h-65v-80h65z" />
    <glyph glyph-name="macron" unicode="&#xaf;" horiz-adv-x="380" 
d="M30 715h320v-100h-320v100z" />
    <glyph glyph-name="degree" unicode="&#xb0;" horiz-adv-x="370" 
d="M185 410q-34 0 -62.5 12t-49 33t-32 48t-11.5 57t11.5 57t32 48t49 33t62.5 12t62.5 -12t49 -33t32 -48t11.5 -57t-11.5 -57t-32 -48t-49 -33t-62.5 -12zM185 500q26 0 43 17t17 43t-17 43t-43 17t-43 -17t-17 -43t17 -43t43 -17z" />
    <glyph glyph-name="plusminus" unicode="&#xb1;" horiz-adv-x="525" 
d="M35 115h455v-115h-455v115zM205 330h-170v125h170v160h115v-160h170v-125h-170v-160h-115v160z" />
    <glyph glyph-name="uni00B2" unicode="&#xb2;" horiz-adv-x="330" 
d="M30 445q0 41 12.5 71t31.5 52t41 38t41 29t31.5 24.5t12.5 25.5q0 15 -13 25t-32 10q-14 0 -24 -5.5t-17 -12.5q-8 -8 -14 -17l-70 30q10 25 28 45q16 17 41.5 31t65.5 14q60 0 95 -33t35 -82q0 -34 -15.5 -55.5t-37 -37t-44.5 -29.5t-38 -33h130v-90h-260v0z" />
    <glyph glyph-name="uni00B3" unicode="&#xb3;" horiz-adv-x="325" 
d="M160 440q-38 0 -65 8t-45 19q-21 12 -35 28l55 60q9 -10 21 -18q11 -7 25.5 -12t33.5 -5q26 0 38 10t12 25t-12 25t-38 10h-45v75h45q19 0 29.5 9.5t10.5 20.5t-10.5 20.5t-29.5 9.5q-15 0 -28 -5.5t-22 -12.5q-11 -8 -20 -17l-55 60q14 15 33 27q17 11 41 19.5t56 8.5
q64 0 97 -29t33 -71q0 -21 -8 -35t-17 -23q-11 -11 -25 -17q17 -7 30 -18q11 -10 20.5 -24.5t9.5 -37.5q0 -45 -35.5 -77.5t-99.5 -32.5z" />
    <glyph glyph-name="acute" unicode="&#xb4;" horiz-adv-x="280" 
d="M110 705h140l-110 -150h-110z" />
    <glyph glyph-name="uni00B5" unicode="&#xb5;" horiz-adv-x="605" 
d="M65 490h135v-275q0 -45 24 -70t66 -25q45 0 75 30.5t30 79.5v260h135v-335q0 -15 10 -25t25 -10q6 0 14 2q4 1 6 3v-125q-7 -3 -16 -5q-17 -5 -39 -5q-36 0 -59 12.5t-37 27.5q-16 18 -24 40h-5q-13 -22 -34 -40q-18 -15 -46 -27.5t-70 -12.5q-22 0 -39 5q-9 2 -16 5
v-210h-135v700z" />
    <glyph glyph-name="paragraph" unicode="&#xb6;" horiz-adv-x="615" 
d="M210 340q-38 0 -70.5 14t-57 38.5t-38.5 57t-14 70.5q0 37 14 70t38.5 57.5t57 38.5t70.5 14h325v-800h-120v670h-85v-670h-120v440z" />
    <glyph glyph-name="periodcentered" unicode="&#xb7;" horiz-adv-x="210" 
d="M105 170q-34 0 -57 23t-23 57t23 57t57 23t57 -23t23 -57t-23 -57t-57 -23z" />
    <glyph glyph-name="cedilla" unicode="&#xb8;" horiz-adv-x="280" 
d="M140 -230q-26 0 -46.5 6t-34.5 14q-17 9 -29 20l30 60q9 -8 20 -13q9 -5 22 -8.5t28 -3.5q35 0 35 25t-35 25q-6 0 -10.5 -1t-7.5 -2q-4 -1 -7 -2l-30 35l45 95h80l-35 -65q24 -2 42 -13q16 -9 29.5 -27t13.5 -50q0 -42 -28.5 -68.5t-81.5 -26.5z" />
    <glyph glyph-name="uni00B9" unicode="&#xb9;" horiz-adv-x="270" 
d="M115 680h-65v75q38 4 57 19t23 26h80v-355h-95v235z" />
    <glyph glyph-name="ordmasculine" unicode="&#xba;" horiz-adv-x="380" 
d="M190 380q-36 0 -66 12.5t-52 34.5t-34.5 52t-12.5 66t12.5 66t34.5 52t52 34.5t66 12.5t66 -12.5t52 -34.5t34.5 -52t12.5 -66t-12.5 -66t-34.5 -52t-52 -34.5t-66 -12.5zM190 470q30 0 50 20.5t20 54.5t-20 54.5t-50 20.5t-50 -20.5t-20 -54.5t20 -54.5t50 -20.5z" />
    <glyph glyph-name="guillemotright" unicode="&#xbb;" horiz-adv-x="550" 
d="M160 240l-125 180h135l125 -180l-125 -180h-135zM380 240l-125 180h135l125 -180l-125 -180h-135z" />
    <glyph glyph-name="onequarter" unicode="&#xbc;" horiz-adv-x="725" 
d="M500 700h125l-435 -700h-125zM95 580h-65v75q38 4 57 19t23 26h80v-355h-95v235zM560 65h-160v85l155 205h100v-205h40v-85h-40v-65h-95v65zM560 150v85l-65 -85h65z" />
    <glyph glyph-name="onehalf" unicode="&#xbd;" horiz-adv-x="745" 
d="M500 700h125l-435 -700h-125zM95 580h-65v75q38 4 57 19t23 26h80v-355h-95v235zM440 0q0 41 12.5 71t31.5 52t41 38t41 29t31.5 24.5t12.5 25.5q0 15 -13 25t-32 10q-14 0 -24 -5.5t-17 -12.5q-8 -8 -14 -17l-70 30q10 25 28 45q16 17 41.5 31t65.5 14q60 0 95 -33
t35 -82q0 -34 -15.5 -55.5t-37 -37t-44.5 -29.5t-38 -33h130v-90h-260v0z" />
    <glyph glyph-name="threequarters" unicode="&#xbe;" horiz-adv-x="795" 
d="M570 700h125l-435 -700h-125zM175 340q-38 0 -65 8t-45 19q-21 12 -35 28l55 60q9 -10 21 -18q11 -7 25.5 -12t33.5 -5q26 0 38 10t12 25t-12 25t-38 10h-45v75h45q19 0 29.5 9.5t10.5 20.5t-10.5 20.5t-29.5 9.5q-15 0 -28 -5.5t-22 -12.5q-11 -8 -20 -17l-55 60
q14 15 33 27q17 11 41 19.5t56 8.5q64 0 97 -29t33 -71q0 -21 -8 -35t-17 -23q-11 -11 -25 -17q17 -7 30 -18q11 -10 20.5 -24.5t9.5 -37.5q0 -45 -35.5 -77.5t-99.5 -32.5zM630 65h-160v85l155 205h100v-205h40v-85h-40v-65h-95v65zM630 150v85l-65 -85h65z" />
    <glyph glyph-name="questiondown" unicode="&#xbf;" horiz-adv-x="525" 
d="M270 -220q-58 0 -104.5 16.5t-78.5 44.5t-49.5 65.5t-17.5 78.5q0 42 14.5 72t36 52t47 39.5t47 35.5t36 39.5t14.5 51.5h130q2 -6 5 -13q2 -6 3.5 -14.5t1.5 -17.5q0 -34 -13 -59t-32.5 -44.5t-42 -35t-42 -30t-32.5 -30.5t-13 -36q0 -26 24.5 -48t65.5 -22
q34 0 57.5 12.5t38.5 27.5q18 18 29 40l130 -60q-19 -47 -53 -83q-15 -15 -34 -30t-44 -26.5t-56 -18.5t-68 -7zM285 340q-34 0 -57 23t-23 57t23 57t57 23t57 -23t23 -57t-23 -57t-57 -23z" />
    <glyph glyph-name="Agrave" unicode="&#xc0;" horiz-adv-x="720" 
d="M275 700h170l270 -700h-160l-60 160h-270l-60 -160h-160zM445 295l-83 230h-4l-83 -230h170zM190 935h140l80 -150h-110z" />
    <glyph glyph-name="Aacute" unicode="&#xc1;" horiz-adv-x="720" 
d="M275 700h170l270 -700h-160l-60 160h-270l-60 -160h-160zM445 295l-83 230h-4l-83 -230h170zM390 935h140l-110 -150h-110z" />
    <glyph glyph-name="Acircumflex" unicode="&#xc2;" horiz-adv-x="720" 
d="M275 700h170l270 -700h-160l-60 160h-270l-60 -160h-160zM445 295l-83 230h-4l-83 -230h170zM300 935h120l120 -150h-120l-60 80l-60 -80h-120z" />
    <glyph glyph-name="Atilde" unicode="&#xc3;" horiz-adv-x="720" 
d="M275 700h170l270 -700h-160l-60 160h-270l-60 -160h-160zM445 295l-83 230h-4l-83 -230h170zM180 780q0 79 30 114.5t77 35.5q25 0 43 -8.5t31.5 -19t26 -19t27.5 -8.5t25 12.5t10 42.5h85q0 -79 -30 -114.5t-75 -35.5q-26 0 -43.5 8t-31 17t-26 17t-29.5 8
q-15 0 -25 -12t-10 -38h-85v0z" />
    <glyph glyph-name="Adieresis" unicode="&#xc4;" horiz-adv-x="720" 
d="M275 700h170l270 -700h-160l-60 160h-270l-60 -160h-160zM445 295l-83 230h-4l-83 -230h170zM250 780q-30 0 -52.5 22.5t-22.5 52.5t22.5 52.5t52.5 22.5t52.5 -22.5t22.5 -52.5t-22.5 -52.5t-52.5 -22.5zM470 780q-30 0 -52.5 22.5t-22.5 52.5t22.5 52.5t52.5 22.5
t52.5 -22.5t22.5 -52.5t-22.5 -52.5t-52.5 -22.5z" />
    <glyph glyph-name="Aring" unicode="&#xc5;" horiz-adv-x="720" 
d="M275 700h170l270 -700h-160l-60 160h-270l-60 -160h-160zM445 295l-83 230h-4l-83 -230h170zM360 760q-24 0 -45 8.5t-36.5 23.5t-24.5 35t-9 43q0 22 9 42t24.5 35t36.5 24t45 9t45 -9t36.5 -24t24.5 -35t9 -42q0 -23 -9 -43t-24.5 -35t-36.5 -23.5t-45 -8.5zM360 830
q15 0 27.5 10.5t12.5 29.5t-12.5 29.5t-27.5 10.5t-27.5 -10.5t-12.5 -29.5t12.5 -29.5t27.5 -10.5z" />
    <glyph glyph-name="AE" unicode="&#xc6;" horiz-adv-x="995" 
d="M350 700h590v-140h-330v-135h250v-135h-250v-150h340v-140h-490v170h-240l-95 -170h-165zM460 305v255h-25l-140 -255h165z" />
    <glyph glyph-name="Ccedilla" unicode="&#xc7;" horiz-adv-x="745" 
d="M405 -230q-26 0 -46.5 6t-34.5 14q-17 9 -29 20l30 60q9 -8 20 -13q9 -5 22 -8.5t28 -3.5q35 0 35 25t-35 25q-6 0 -10.5 -1t-7.5 -2q-4 -1 -7 -2l-30 35l30 65q-66 7 -125 37.5t-103.5 78.5t-70.5 110.5t-26 133.5q0 75 29 141.5t80 116t120.5 78.5t150.5 29
q73 0 128.5 -22t92.5 -48q43 -31 74 -70l-100 -100q-22 28 -51 50q-25 19 -61 34.5t-83 15.5t-88 -17.5t-71.5 -48t-48 -71.5t-17.5 -88t17.5 -88t48 -71.5t71.5 -48t88 -17.5q49 0 86 15.5t63 34.5q30 22 51 50l100 -100q-30 -36 -71 -66q-35 -26 -87.5 -48t-121.5 -26
l-15 -30q24 -2 42 -13q16 -9 29.5 -27t13.5 -50q0 -42 -28.5 -68.5t-81.5 -26.5z" />
    <glyph glyph-name="Egrave" unicode="&#xc8;" horiz-adv-x="665" 
d="M90 700h520v-140h-370v-135h290v-135h-290v-150h380v-140h-530v700zM195 935h140l80 -150h-110z" />
    <glyph glyph-name="Eacute" unicode="&#xc9;" horiz-adv-x="665" 
d="M90 700h520v-140h-370v-135h290v-135h-290v-150h380v-140h-530v700zM375 935h140l-110 -150h-110z" />
    <glyph glyph-name="Ecircumflex" unicode="&#xca;" horiz-adv-x="665" 
d="M90 700h520v-140h-370v-135h290v-135h-290v-150h380v-140h-530v700zM295 935h120l120 -150h-120l-60 80l-60 -80h-120z" />
    <glyph glyph-name="Edieresis" unicode="&#xcb;" horiz-adv-x="665" 
d="M90 700h520v-140h-370v-135h290v-135h-290v-150h380v-140h-530v700zM245 785q-30 0 -52.5 22.5t-22.5 52.5t22.5 52.5t52.5 22.5t52.5 -22.5t22.5 -52.5t-22.5 -52.5t-52.5 -22.5zM465 785q-30 0 -52.5 22.5t-22.5 52.5t22.5 52.5t52.5 22.5t52.5 -22.5t22.5 -52.5
t-22.5 -52.5t-52.5 -22.5z" />
    <glyph glyph-name="Igrave" unicode="&#xcc;" horiz-adv-x="330" 
d="M90 700h150v-700h-150v700zM0 935h140l80 -150h-110z" />
    <glyph glyph-name="Iacute" unicode="&#xcd;" horiz-adv-x="330" 
d="M90 700h150v-700h-150v700zM190 935h140l-110 -150h-110z" />
    <glyph glyph-name="Icircumflex" unicode="&#xce;" horiz-adv-x="330" 
d="M90 700h150v-700h-150v700zM105 935h120l120 -150h-120l-60 80l-60 -80h-120z" />
    <glyph glyph-name="Idieresis" unicode="&#xcf;" horiz-adv-x="330" 
d="M90 700h150v-700h-150v700zM55 780q-30 0 -52.5 22.5t-22.5 52.5t22.5 52.5t52.5 22.5t52.5 -22.5t22.5 -52.5t-22.5 -52.5t-52.5 -22.5zM275 780q-30 0 -52.5 22.5t-22.5 52.5t22.5 52.5t52.5 22.5t52.5 -22.5t22.5 -52.5t-22.5 -52.5t-52.5 -22.5z" />
    <glyph glyph-name="Eth" unicode="&#xd0;" horiz-adv-x="770" 
d="M100 290h-85v120h85v290h255q81 0 148.5 -27.5t117 -74.5t77 -111t27.5 -137t-27.5 -137t-77 -111t-117 -74.5t-148.5 -27.5h-255v290zM355 140q47 0 86.5 16t68 44t44.5 66.5t16 83.5t-16 83.5t-44.5 66.5t-68 44t-86.5 16h-105v-150h135v-120h-135v-150h105z" />
    <glyph glyph-name="Ntilde" unicode="&#xd1;" horiz-adv-x="805" 
d="M90 700h135l340 -435v435h150v-700h-135l-340 435v-435h-150v700zM225 780q0 79 30 114.5t77 35.5q25 0 43 -8.5t31.5 -19t26 -19t27.5 -8.5t25 12.5t10 42.5h85q0 -79 -30 -114.5t-75 -35.5q-26 0 -43.5 8t-31 17t-26 17t-29.5 8q-15 0 -25 -12t-10 -38h-85v0z" />
    <glyph glyph-name="Ograve" unicode="&#xd2;" horiz-adv-x="850" 
d="M425 -15q-81 0 -150.5 29t-120.5 78.5t-80 116t-29 141.5t29 141.5t80 116t120.5 78.5t150.5 29t150.5 -29t120.5 -78.5t80 -116t29 -141.5t-29 -141.5t-80 -116t-120.5 -78.5t-150.5 -29zM425 125q47 0 88 17.5t71.5 48t48 71.5t17.5 88t-17.5 88t-48 71.5t-71.5 48
t-88 17.5t-88 -17.5t-71.5 -48t-48 -71.5t-17.5 -88t17.5 -88t48 -71.5t71.5 -48t88 -17.5zM260 935h140l80 -150h-110z" />
    <glyph glyph-name="Oacute" unicode="&#xd3;" horiz-adv-x="850" 
d="M425 -15q-81 0 -150.5 29t-120.5 78.5t-80 116t-29 141.5t29 141.5t80 116t120.5 78.5t150.5 29t150.5 -29t120.5 -78.5t80 -116t29 -141.5t-29 -141.5t-80 -116t-120.5 -78.5t-150.5 -29zM425 125q47 0 88 17.5t71.5 48t48 71.5t17.5 88t-17.5 88t-48 71.5t-71.5 48
t-88 17.5t-88 -17.5t-71.5 -48t-48 -71.5t-17.5 -88t17.5 -88t48 -71.5t71.5 -48t88 -17.5zM455 935h140l-110 -150h-110z" />
    <glyph glyph-name="Ocircumflex" unicode="&#xd4;" horiz-adv-x="850" 
d="M425 -15q-81 0 -150.5 29t-120.5 78.5t-80 116t-29 141.5t29 141.5t80 116t120.5 78.5t150.5 29t150.5 -29t120.5 -78.5t80 -116t29 -141.5t-29 -141.5t-80 -116t-120.5 -78.5t-150.5 -29zM425 125q47 0 88 17.5t71.5 48t48 71.5t17.5 88t-17.5 88t-48 71.5t-71.5 48
t-88 17.5t-88 -17.5t-71.5 -48t-48 -71.5t-17.5 -88t17.5 -88t48 -71.5t71.5 -48t88 -17.5zM365 935h120l120 -150h-120l-60 80l-60 -80h-120z" />
    <glyph glyph-name="Otilde" unicode="&#xd5;" horiz-adv-x="850" 
d="M425 -15q-81 0 -150.5 29t-120.5 78.5t-80 116t-29 141.5t29 141.5t80 116t120.5 78.5t150.5 29t150.5 -29t120.5 -78.5t80 -116t29 -141.5t-29 -141.5t-80 -116t-120.5 -78.5t-150.5 -29zM425 125q47 0 88 17.5t71.5 48t48 71.5t17.5 88t-17.5 88t-48 71.5t-71.5 48
t-88 17.5t-88 -17.5t-71.5 -48t-48 -71.5t-17.5 -88t17.5 -88t48 -71.5t71.5 -48t88 -17.5zM250 780q0 79 30 114.5t77 35.5q25 0 43 -8.5t31.5 -19t26 -19t27.5 -8.5t25 12.5t10 42.5h85q0 -79 -30 -114.5t-75 -35.5q-26 0 -43.5 8t-31 17t-26 17t-29.5 8q-15 0 -25 -12
t-10 -38h-85v0z" />
    <glyph glyph-name="Odieresis" unicode="&#xd6;" horiz-adv-x="850" 
d="M425 -15q-81 0 -150.5 29t-120.5 78.5t-80 116t-29 141.5t29 141.5t80 116t120.5 78.5t150.5 29t150.5 -29t120.5 -78.5t80 -116t29 -141.5t-29 -141.5t-80 -116t-120.5 -78.5t-150.5 -29zM425 125q47 0 88 17.5t71.5 48t48 71.5t17.5 88t-17.5 88t-48 71.5t-71.5 48
t-88 17.5t-88 -17.5t-71.5 -48t-48 -71.5t-17.5 -88t17.5 -88t48 -71.5t71.5 -48t88 -17.5zM315 780q-30 0 -52.5 22.5t-22.5 52.5t22.5 52.5t52.5 22.5t52.5 -22.5t22.5 -52.5t-22.5 -52.5t-52.5 -22.5zM535 780q-30 0 -52.5 22.5t-22.5 52.5t22.5 52.5t52.5 22.5
t52.5 -22.5t22.5 -52.5t-22.5 -52.5t-52.5 -22.5z" />
    <glyph glyph-name="multiply" unicode="&#xd7;" horiz-adv-x="520" 
d="M50 180l130 130l-130 130l80 80l130 -130l130 130l80 -80l-130 -130l130 -130l-80 -80l-130 130l-130 -130z" />
    <glyph glyph-name="Oslash" unicode="&#xd8;" horiz-adv-x="850" 
d="M35 50l85 85q-21 26 -38 59q-14 28 -25.5 67.5t-11.5 88.5q0 75 29 141.5t80 116t120.5 78.5t150.5 29q53 0 94.5 -11t70.5 -24q34 -16 60 -35l85 85l80 -80l-85 -85q20 -26 37 -59q14 -29 26 -68t12 -88q0 -75 -29 -141.5t-80 -116t-120.5 -78.5t-150.5 -29
q-53 0 -94.5 10.5t-70.5 24.5q-34 15 -60 35l-85 -85zM545 540q-16 9 -34 17q-16 7 -38 12.5t-48 5.5q-47 0 -88 -17.5t-71.5 -48t-48 -71.5t-17.5 -88q0 -29 4.5 -50.5t10.5 -35.5q6 -17 15 -29zM425 125q47 0 88 17.5t71.5 48t48 71.5t17.5 88q0 28 -5 50t-10 36
q-7 17 -15 29l-315 -305q16 -10 34 -18q16 -7 38 -12t48 -5z" />
    <glyph glyph-name="Ugrave" unicode="&#xd9;" horiz-adv-x="780" 
d="M390 -15q-68 0 -124 22.5t-96 62.5t-62.5 96t-22.5 124v410h150v-410q0 -38 11.5 -68t32 -52t49 -33.5t62.5 -11.5t62.5 11.5t49 33.5t32 52t11.5 68v410h150v-410q0 -68 -22.5 -124t-62.5 -96t-96.5 -62.5t-123.5 -22.5zM220 935h140l80 -150h-110z" />
    <glyph glyph-name="Uacute" unicode="&#xda;" horiz-adv-x="780" 
d="M390 -15q-68 0 -124 22.5t-96 62.5t-62.5 96t-22.5 124v410h150v-410q0 -38 11.5 -68t32 -52t49 -33.5t62.5 -11.5t62.5 11.5t49 33.5t32 52t11.5 68v410h150v-410q0 -68 -22.5 -124t-62.5 -96t-96.5 -62.5t-123.5 -22.5zM420 935h140l-110 -150h-110z" />
    <glyph glyph-name="Ucircumflex" unicode="&#xdb;" horiz-adv-x="780" 
d="M390 -15q-68 0 -124 22.5t-96 62.5t-62.5 96t-22.5 124v410h150v-410q0 -38 11.5 -68t32 -52t49 -33.5t62.5 -11.5t62.5 11.5t49 33.5t32 52t11.5 68v410h150v-410q0 -68 -22.5 -124t-62.5 -96t-96.5 -62.5t-123.5 -22.5zM330 935h120l120 -150h-120l-60 80l-60 -80h-120
z" />
    <glyph glyph-name="Udieresis" unicode="&#xdc;" horiz-adv-x="780" 
d="M390 -15q-68 0 -124 22.5t-96 62.5t-62.5 96t-22.5 124v410h150v-410q0 -38 11.5 -68t32 -52t49 -33.5t62.5 -11.5t62.5 11.5t49 33.5t32 52t11.5 68v410h150v-410q0 -68 -22.5 -124t-62.5 -96t-96.5 -62.5t-123.5 -22.5zM280 780q-30 0 -52.5 22.5t-22.5 52.5t22.5 52.5
t52.5 22.5t52.5 -22.5t22.5 -52.5t-22.5 -52.5t-52.5 -22.5zM500 780q-30 0 -52.5 22.5t-22.5 52.5t22.5 52.5t52.5 22.5t52.5 -22.5t22.5 -52.5t-22.5 -52.5t-52.5 -22.5z" />
    <glyph glyph-name="Yacute" unicode="&#xdd;" horiz-adv-x="670" 
d="M260 250l-265 450h175l163 -300h4l163 300h175l-265 -450v-250h-150v250zM360 935h140l-110 -150h-110z" />
    <glyph glyph-name="Thorn" unicode="&#xde;" horiz-adv-x="740" 
d="M90 700h150v-115h215q56 0 101.5 -17t77.5 -47t49 -71t17 -90t-17 -90t-49 -71t-77.5 -47t-101.5 -17h-215v-135h-150v700zM450 275q45 0 70 23.5t25 61.5t-25 61.5t-70 23.5h-210v-170h210z" />
    <glyph glyph-name="germandbls" unicode="&#xdf;" horiz-adv-x="600" 
d="M65 485q0 49 17 90t47.5 71t72.5 47t93 17t92.5 -15.5t71 -42t45.5 -61t16 -71.5q0 -36 -12.5 -61t-27.5 -42q-18 -19 -40 -32q35 -15 62 -39q23 -21 43 -54t20 -82q0 -43 -17 -81.5t-48 -67t-74.5 -45t-95.5 -16.5h-50v130h50q42 0 68.5 25.5t26.5 59.5t-26.5 59.5
t-68.5 25.5h-50v130h15q38 0 61.5 22.5t23.5 52.5t-23.5 52.5t-61.5 22.5q-42 0 -68.5 -26.5t-26.5 -68.5v-485h-135v485z" />
    <glyph glyph-name="agrave" unicode="&#xe0;" horiz-adv-x="540" 
d="M190 -10q-34 0 -61.5 10.5t-47 29.5t-30.5 44.5t-11 55.5q0 60 38.5 102.5t106.5 54.5l155 28q-4 26 -25.5 45.5t-59.5 19.5q-26 0 -46.5 -8.5t-34.5 -19.5q-17 -12 -29 -27l-80 80q21 26 51 47q26 18 63 33t86 15q47 0 85.5 -15t66.5 -41.5t43 -62t15 -76.5v-305h-135
v60h-5q-16 -20 -37 -35q-18 -14 -45.5 -24.5t-62.5 -10.5zM235 100q45 0 75 30.5t30 79.5v10l-110 -20q-26 -5 -40.5 -18t-14.5 -32q0 -23 15 -36.5t45 -13.5zM120 705h140l80 -150h-110z" />
    <glyph glyph-name="aacute" unicode="&#xe1;" horiz-adv-x="540" 
d="M190 -10q-34 0 -61.5 10.5t-47 29.5t-30.5 44.5t-11 55.5q0 60 38.5 102.5t106.5 54.5l155 28q-4 26 -25.5 45.5t-59.5 19.5q-26 0 -46.5 -8.5t-34.5 -19.5q-17 -12 -29 -27l-80 80q21 26 51 47q26 18 63 33t86 15q47 0 85.5 -15t66.5 -41.5t43 -62t15 -76.5v-305h-135
v60h-5q-16 -20 -37 -35q-18 -14 -45.5 -24.5t-62.5 -10.5zM235 100q45 0 75 30.5t30 79.5v10l-110 -20q-26 -5 -40.5 -18t-14.5 -32q0 -23 15 -36.5t45 -13.5zM300 705h140l-110 -150h-110z" />
    <glyph glyph-name="acircumflex" unicode="&#xe2;" horiz-adv-x="540" 
d="M190 -10q-34 0 -61.5 10.5t-47 29.5t-30.5 44.5t-11 55.5q0 60 38.5 102.5t106.5 54.5l155 28q-4 26 -25.5 45.5t-59.5 19.5q-26 0 -46.5 -8.5t-34.5 -19.5q-17 -12 -29 -27l-80 80q21 26 51 47q26 18 63 33t86 15q47 0 85.5 -15t66.5 -41.5t43 -62t15 -76.5v-305h-135
v60h-5q-16 -20 -37 -35q-18 -14 -45.5 -24.5t-62.5 -10.5zM235 100q45 0 75 30.5t30 79.5v10l-110 -20q-26 -5 -40.5 -18t-14.5 -32q0 -23 15 -36.5t45 -13.5zM220 705h120l120 -150h-120l-60 80l-60 -80h-120z" />
    <glyph glyph-name="atilde" unicode="&#xe3;" horiz-adv-x="540" 
d="M190 -10q-34 0 -61.5 10.5t-47 29.5t-30.5 44.5t-11 55.5q0 60 38.5 102.5t106.5 54.5l155 28q-4 26 -25.5 45.5t-59.5 19.5q-26 0 -46.5 -8.5t-34.5 -19.5q-17 -12 -29 -27l-80 80q21 26 51 47q26 18 63 33t86 15q47 0 85.5 -15t66.5 -41.5t43 -62t15 -76.5v-305h-135
v60h-5q-16 -20 -37 -35q-18 -14 -45.5 -24.5t-62.5 -10.5zM235 100q45 0 75 30.5t30 79.5v10l-110 -20q-26 -5 -40.5 -18t-14.5 -32q0 -23 15 -36.5t45 -13.5zM105 550q0 79 30 114.5t77 35.5q25 0 43 -8.5t31.5 -19t26 -19t27.5 -8.5t25 12.5t10 42.5h85q0 -79 -30 -114.5
t-75 -35.5q-26 0 -43.5 8t-31 17t-26 17t-29.5 8q-15 0 -25 -12t-10 -38h-85v0z" />
    <glyph glyph-name="adieresis" unicode="&#xe4;" horiz-adv-x="540" 
d="M190 -10q-34 0 -61.5 10.5t-47 29.5t-30.5 44.5t-11 55.5q0 60 38.5 102.5t106.5 54.5l155 28q-4 26 -25.5 45.5t-59.5 19.5q-26 0 -46.5 -8.5t-34.5 -19.5q-17 -12 -29 -27l-80 80q21 26 51 47q26 18 63 33t86 15q47 0 85.5 -15t66.5 -41.5t43 -62t15 -76.5v-305h-135
v60h-5q-16 -20 -37 -35q-18 -14 -45.5 -24.5t-62.5 -10.5zM235 100q45 0 75 30.5t30 79.5v10l-110 -20q-26 -5 -40.5 -18t-14.5 -32q0 -23 15 -36.5t45 -13.5zM170 555q-30 0 -52.5 22.5t-22.5 52.5t22.5 52.5t52.5 22.5t52.5 -22.5t22.5 -52.5t-22.5 -52.5t-52.5 -22.5z
M390 555q-30 0 -52.5 22.5t-22.5 52.5t22.5 52.5t52.5 22.5t52.5 -22.5t22.5 -52.5t-22.5 -52.5t-52.5 -22.5z" />
    <glyph glyph-name="aring" unicode="&#xe5;" horiz-adv-x="540" 
d="M190 -10q-34 0 -61.5 10.5t-47 29.5t-30.5 44.5t-11 55.5q0 60 38.5 102.5t106.5 54.5l155 28q-4 26 -25.5 45.5t-59.5 19.5q-26 0 -46.5 -8.5t-34.5 -19.5q-17 -12 -29 -27l-80 80q21 26 51 47q26 18 63 33t86 15q47 0 85.5 -15t66.5 -41.5t43 -62t15 -76.5v-305h-135
v60h-5q-16 -20 -37 -35q-18 -14 -45.5 -24.5t-62.5 -10.5zM235 100q45 0 75 30.5t30 79.5v10l-110 -20q-26 -5 -40.5 -18t-14.5 -32q0 -23 15 -36.5t45 -13.5zM280 530q-24 0 -45 8.5t-36.5 23.5t-24.5 35t-9 43q0 22 9 42t24.5 35t36.5 24t45 9t45 -9t36.5 -24t24.5 -35
t9 -42q0 -23 -9 -43t-24.5 -35t-36.5 -23.5t-45 -8.5zM280 600q15 0 27.5 10.5t12.5 29.5t-12.5 29.5t-27.5 10.5t-27.5 -10.5t-12.5 -29.5t12.5 -29.5t27.5 -10.5z" />
    <glyph glyph-name="ae" unicode="&#xe6;" horiz-adv-x="865" 
d="M220 -10q-43 0 -76.5 11.5t-56.5 31t-35 46t-12 56.5q0 34 13 63t38.5 50.5t62.5 34t86 12.5h100q-8 85 -85 85q-26 0 -46.5 -8.5t-34.5 -19.5q-17 -12 -29 -27l-80 80q21 26 50 47q24 18 59.5 33t80.5 15q39 0 69 -12.5t50 -27.5q24 -18 41 -40q20 22 46 40
q23 15 55 27.5t74 12.5q49 0 92.5 -18.5t76.5 -51.5t52 -78t19 -97q0 -14 -1 -24t-2 -17q-1 -8 -2 -14h-345q11 -38 41.5 -64t83.5 -26q30 0 53 8t39 19q18 12 33 28l70 -95q-23 -22 -54 -40q-26 -15 -64 -27.5t-87 -12.5q-48 0 -82 14.5t-57 32.5q-27 21 -46 48
q-19 -27 -46 -48q-23 -18 -59 -32.5t-85 -14.5zM235 100q45 0 75 30t30 75h-100q-30 0 -47.5 -16t-17.5 -39t15 -36.5t45 -13.5zM690 295q-11 34 -39 59.5t-66 25.5q-37 0 -65.5 -25.5t-39.5 -59.5h210z" />
    <glyph glyph-name="ccedilla" unicode="&#xe7;" horiz-adv-x="520" 
d="M275 -230q-26 0 -46.5 6t-34.5 14q-17 9 -29 20l30 60q9 -8 20 -13q9 -5 22 -8.5t28 -3.5q35 0 35 25t-35 25q-6 0 -10.5 -1t-7.5 -2q-4 -1 -7 -2l-30 35l35 70q-41 7 -79 29t-67 55t-46.5 75t-17.5 91q0 52 20 98.5t55.5 81.5t83 55t101.5 20q53 0 91 -15.5t64 -34.5
q30 -22 50 -50l-85 -85q-14 17 -32 30q-16 11 -38 20.5t-50 9.5q-26 0 -49 -10t-40 -27t-26.5 -41t-9.5 -52t9.5 -52t26.5 -41t40 -27t49 -10q28 0 50 9.5t38 20.5q18 13 32 30l85 -85q-19 -25 -45 -46q-23 -18 -56.5 -34t-78.5 -20l-20 -35q24 -2 42 -13q16 -9 29.5 -27
t13.5 -50q0 -42 -28.5 -68.5t-81.5 -26.5z" />
    <glyph glyph-name="egrave" unicode="&#xe8;" horiz-adv-x="570" 
d="M295 -10q-54 0 -101.5 20t-83 55t-55.5 81t-20 99q0 52 20 98.5t55 81.5t81 55t99 20q51 0 95.5 -19.5t77.5 -52.5t52.5 -77.5t19.5 -95.5q0 -14 -1 -24.5t-2 -18.5q-1 -10 -2 -17h-355q11 -34 42.5 -59.5t87.5 -25.5q32 0 56 8t41 19q19 12 33 28l70 -95
q-22 -22 -54 -40q-27 -15 -66 -27.5t-90 -12.5zM395 295q-11 34 -39.5 59.5t-70.5 25.5t-70.5 -25.5t-39.5 -59.5h220zM125 705h140l80 -150h-110z" />
    <glyph glyph-name="eacute" unicode="&#xe9;" horiz-adv-x="570" 
d="M295 -10q-54 0 -101.5 20t-83 55t-55.5 81t-20 99q0 52 20 98.5t55 81.5t81 55t99 20q51 0 95.5 -19.5t77.5 -52.5t52.5 -77.5t19.5 -95.5q0 -14 -1 -24.5t-2 -18.5q-1 -10 -2 -17h-355q11 -34 42.5 -59.5t87.5 -25.5q32 0 56 8t41 19q19 12 33 28l70 -95
q-22 -22 -54 -40q-27 -15 -66 -27.5t-90 -12.5zM395 295q-11 34 -39.5 59.5t-70.5 25.5t-70.5 -25.5t-39.5 -59.5h220zM305 705h140l-110 -150h-110z" />
    <glyph glyph-name="ecircumflex" unicode="&#xea;" horiz-adv-x="570" 
d="M295 -10q-54 0 -101.5 20t-83 55t-55.5 81t-20 99q0 52 20 98.5t55 81.5t81 55t99 20q51 0 95.5 -19.5t77.5 -52.5t52.5 -77.5t19.5 -95.5q0 -14 -1 -24.5t-2 -18.5q-1 -10 -2 -17h-355q11 -34 42.5 -59.5t87.5 -25.5q32 0 56 8t41 19q19 12 33 28l70 -95
q-22 -22 -54 -40q-27 -15 -66 -27.5t-90 -12.5zM395 295q-11 34 -39.5 59.5t-70.5 25.5t-70.5 -25.5t-39.5 -59.5h220zM225 705h120l120 -150h-120l-60 80l-60 -80h-120z" />
    <glyph glyph-name="edieresis" unicode="&#xeb;" horiz-adv-x="570" 
d="M295 -10q-54 0 -101.5 20t-83 55t-55.5 81t-20 99q0 52 20 98.5t55 81.5t81 55t99 20q51 0 95.5 -19.5t77.5 -52.5t52.5 -77.5t19.5 -95.5q0 -14 -1 -24.5t-2 -18.5q-1 -10 -2 -17h-355q11 -34 42.5 -59.5t87.5 -25.5q32 0 56 8t41 19q19 12 33 28l70 -95
q-22 -22 -54 -40q-27 -15 -66 -27.5t-90 -12.5zM395 295q-11 34 -39.5 59.5t-70.5 25.5t-70.5 -25.5t-39.5 -59.5h220zM175 555q-30 0 -52.5 22.5t-22.5 52.5t22.5 52.5t52.5 22.5t52.5 -22.5t22.5 -52.5t-22.5 -52.5t-52.5 -22.5zM395 555q-30 0 -52.5 22.5t-22.5 52.5
t22.5 52.5t52.5 22.5t52.5 -22.5t22.5 -52.5t-22.5 -52.5t-52.5 -22.5z" />
    <glyph glyph-name="igrave" unicode="&#xec;" horiz-adv-x="265" 
d="M65 490h135v-490h-135v490zM-35 705h140l80 -150h-110z" />
    <glyph glyph-name="iacute" unicode="&#xed;" horiz-adv-x="265" 
d="M65 490h135v-490h-135v490zM160 705h140l-110 -150h-110z" />
    <glyph glyph-name="icircumflex" unicode="&#xee;" horiz-adv-x="265" 
d="M65 490h135v-490h-135v490zM70 705h120l120 -150h-120l-60 80l-60 -80h-120z" />
    <glyph glyph-name="idieresis" unicode="&#xef;" horiz-adv-x="265" 
d="M65 490h135v-490h-135v490zM22 555q-30 0 -52.5 22.5t-22.5 52.5t22.5 52.5t52.5 22.5t52.5 -22.5t22.5 -52.5t-22.5 -52.5t-52.5 -22.5zM242 555q-30 0 -52.5 22.5t-22.5 52.5t22.5 52.5t52.5 22.5t52.5 -22.5t22.5 -52.5t-22.5 -52.5t-52.5 -22.5z" />
    <glyph glyph-name="eth" unicode="&#xf0;" horiz-adv-x="600" 
d="M295 -10q-56 0 -104 19t-82.5 52t-54 76.5t-19.5 92.5t19.5 92.5t53 76.5t79 52t98.5 19q23 0 40.5 -4t31.5 -9q15 -5 28 -12h5q-14 28 -31.5 53t-34.5 43q-19 21 -39 39l-105 -50l-60 65l105 50q-13 12 -29 24q-14 11 -32.5 23t-38.5 23l110 50q41 -27 68 -48
q15 -11 27 -22l105 50l60 -65l-105 -50q46 -43 82 -99q31 -48 57 -117.5t26 -157.5q0 -57 -20 -105.5t-55.5 -84t-83 -56t-101.5 -20.5zM295 115q57 0 91 33t34 82t-34 82t-91 33t-91 -33t-34 -82t34 -82t91 -33z" />
    <glyph glyph-name="ntilde" unicode="&#xf1;" 
d="M65 490h135v-70h5q16 22 37 40q18 15 45 27.5t63 12.5q37 0 70 -14.5t57.5 -41t38.5 -64.5t14 -85v-295h-135v275q0 45 -24 70t-66 25q-45 0 -75 -30.5t-30 -79.5v-260h-135v490zM125 550q0 79 30 114.5t77 35.5q25 0 43 -8.5t31.5 -19t26 -19t27.5 -8.5t25 12.5t10 42.5
h85q0 -79 -30 -114.5t-75 -35.5q-26 0 -43.5 8t-31 17t-26 17t-29.5 8q-15 0 -25 -12t-10 -38h-85v0z" />
    <glyph glyph-name="ograve" unicode="&#xf2;" horiz-adv-x="590" 
d="M295 -10q-54 0 -101.5 20t-83 55t-55.5 81t-20 99q0 52 20 98.5t55.5 81.5t83 55t101.5 20t101.5 -20t83 -55t55.5 -81.5t20 -98.5q0 -53 -20 -99t-55.5 -81t-83 -55t-101.5 -20zM295 115q26 0 49 10t40 27t26.5 41t9.5 52t-9.5 52t-26.5 41t-40 27t-49 10t-49 -10
t-40 -27t-26.5 -41t-9.5 -52t9.5 -52t26.5 -41t40 -27t49 -10zM130 705h140l80 -150h-110z" />
    <glyph glyph-name="oacute" unicode="&#xf3;" horiz-adv-x="590" 
d="M295 -10q-54 0 -101.5 20t-83 55t-55.5 81t-20 99q0 52 20 98.5t55.5 81.5t83 55t101.5 20t101.5 -20t83 -55t55.5 -81.5t20 -98.5q0 -53 -20 -99t-55.5 -81t-83 -55t-101.5 -20zM295 115q26 0 49 10t40 27t26.5 41t9.5 52t-9.5 52t-26.5 41t-40 27t-49 10t-49 -10
t-40 -27t-26.5 -41t-9.5 -52t9.5 -52t26.5 -41t40 -27t49 -10zM320 705h140l-110 -150h-110z" />
    <glyph glyph-name="ocircumflex" unicode="&#xf4;" horiz-adv-x="590" 
d="M295 -10q-54 0 -101.5 20t-83 55t-55.5 81t-20 99q0 52 20 98.5t55.5 81.5t83 55t101.5 20t101.5 -20t83 -55t55.5 -81.5t20 -98.5q0 -53 -20 -99t-55.5 -81t-83 -55t-101.5 -20zM295 115q26 0 49 10t40 27t26.5 41t9.5 52t-9.5 52t-26.5 41t-40 27t-49 10t-49 -10
t-40 -27t-26.5 -41t-9.5 -52t9.5 -52t26.5 -41t40 -27t49 -10zM235 705h120l120 -150h-120l-60 80l-60 -80h-120z" />
    <glyph glyph-name="otilde" unicode="&#xf5;" horiz-adv-x="590" 
d="M295 -10q-54 0 -101.5 20t-83 55t-55.5 81t-20 99q0 52 20 98.5t55.5 81.5t83 55t101.5 20t101.5 -20t83 -55t55.5 -81.5t20 -98.5q0 -53 -20 -99t-55.5 -81t-83 -55t-101.5 -20zM295 115q26 0 49 10t40 27t26.5 41t9.5 52t-9.5 52t-26.5 41t-40 27t-49 10t-49 -10
t-40 -27t-26.5 -41t-9.5 -52t9.5 -52t26.5 -41t40 -27t49 -10zM120 550q0 79 30 114.5t77 35.5q25 0 43 -8.5t31.5 -19t26 -19t27.5 -8.5t25 12.5t10 42.5h85q0 -79 -30 -114.5t-75 -35.5q-26 0 -43.5 8t-31 17t-26 17t-29.5 8q-15 0 -25 -12t-10 -38h-85v0z" />
    <glyph glyph-name="odieresis" unicode="&#xf6;" horiz-adv-x="590" 
d="M295 -10q-54 0 -101.5 20t-83 55t-55.5 81t-20 99q0 52 20 98.5t55.5 81.5t83 55t101.5 20t101.5 -20t83 -55t55.5 -81.5t20 -98.5q0 -53 -20 -99t-55.5 -81t-83 -55t-101.5 -20zM295 115q26 0 49 10t40 27t26.5 41t9.5 52t-9.5 52t-26.5 41t-40 27t-49 10t-49 -10
t-40 -27t-26.5 -41t-9.5 -52t9.5 -52t26.5 -41t40 -27t49 -10zM185 555q-30 0 -52.5 22.5t-22.5 52.5t22.5 52.5t52.5 22.5t52.5 -22.5t22.5 -52.5t-22.5 -52.5t-52.5 -22.5zM405 555q-30 0 -52.5 22.5t-22.5 52.5t22.5 52.5t52.5 22.5t52.5 -22.5t22.5 -52.5t-22.5 -52.5
t-52.5 -22.5z" />
    <glyph glyph-name="divide" unicode="&#xf7;" horiz-adv-x="520" 
d="M260 30q-34 0 -57 22.5t-23 52.5t23 52.5t57 22.5t57 -22.5t23 -52.5t-23 -52.5t-57 -22.5zM35 350h450v-115h-450v115zM260 405q-34 0 -57 22.5t-23 52.5t23 52.5t57 22.5t57 -22.5t23 -52.5t-23 -52.5t-57 -22.5z" />
    <glyph glyph-name="oslash" unicode="&#xf8;" horiz-adv-x="600" 
d="M35 35l55 60q-14 18 -25 41q-10 20 -17.5 47.5t-7.5 61.5q0 52 20 98.5t55.5 81.5t83 55t101.5 20q34 0 59 -6t42 -14q19 -9 34 -20l60 65l70 -70l-55 -60q14 -18 25 -41q9 -20 17 -47.5t8 -61.5q0 -53 -20 -99t-55.5 -81t-83 -55t-101.5 -20q-34 0 -59 6t-42 14
q-20 9 -34 20l-60 -65zM350 365q-6 2 -14 5q-7 2 -16 3.5t-20 1.5q-26 0 -49 -10t-40 -27t-26.5 -41t-9.5 -52q0 -21 5 -36q2 -8 5 -14zM300 115q26 0 49 10t40 27t26.5 41t9.5 52q0 11 -1.5 20t-3.5 16q-3 8 -5 14l-165 -170q6 -3 14 -5q15 -5 36 -5z" />
    <glyph glyph-name="ugrave" unicode="&#xf9;" 
d="M245 -10q-38 0 -70.5 14.5t-57 41t-38.5 64.5t-14 85v295h135v-275q0 -45 24 -70t66 -25q45 0 75 30.5t30 79.5v260h135v-490h-135v70h-5q-16 -22 -37 -40q-18 -15 -45.5 -27.5t-62.5 -12.5zM135 705h140l80 -150h-110z" />
    <glyph glyph-name="uacute" unicode="&#xfa;" 
d="M245 -10q-38 0 -70.5 14.5t-57 41t-38.5 64.5t-14 85v295h135v-275q0 -45 24 -70t66 -25q45 0 75 30.5t30 79.5v260h135v-490h-135v70h-5q-16 -22 -37 -40q-18 -15 -45.5 -27.5t-62.5 -12.5zM320 705h140l-110 -150h-110z" />
    <glyph glyph-name="ucircumflex" unicode="&#xfb;" 
d="M245 -10q-38 0 -70.5 14.5t-57 41t-38.5 64.5t-14 85v295h135v-275q0 -45 24 -70t66 -25q45 0 75 30.5t30 79.5v260h135v-490h-135v70h-5q-16 -22 -37 -40q-18 -15 -45.5 -27.5t-62.5 -12.5zM235 705h120l120 -150h-120l-60 80l-60 -80h-120z" />
    <glyph glyph-name="udieresis" unicode="&#xfc;" 
d="M245 -10q-38 0 -70.5 14.5t-57 41t-38.5 64.5t-14 85v295h135v-275q0 -45 24 -70t66 -25q45 0 75 30.5t30 79.5v260h135v-490h-135v70h-5q-16 -22 -37 -40q-18 -15 -45.5 -27.5t-62.5 -12.5zM185 555q-30 0 -52.5 22.5t-22.5 52.5t22.5 52.5t52.5 22.5t52.5 -22.5
t22.5 -52.5t-22.5 -52.5t-52.5 -22.5zM405 555q-30 0 -52.5 22.5t-22.5 52.5t22.5 52.5t52.5 22.5t52.5 -22.5t22.5 -52.5t-22.5 -52.5t-52.5 -22.5z" />
    <glyph glyph-name="yacute" unicode="&#xfd;" horiz-adv-x="510" 
d="M125 -210q-19 0 -35.5 2t-28.5 5q-14 4 -26 8v125q7 -3 16 -5q17 -5 39 -5q34 0 54 17t31 43l10 25l-190 485h145l115 -325h5l110 325h145l-200 -530q-31 -83 -76.5 -126.5t-113.5 -43.5zM275 705h140l-110 -150h-110z" />
    <glyph glyph-name="thorn" unicode="&#xfe;" horiz-adv-x="620" 
d="M70 700h135v-280h5q15 22 38 40q20 15 48.5 27.5t68.5 12.5q43 0 83 -19t70.5 -52.5t48.5 -80.5t18 -103t-18 -103t-48.5 -81t-70.5 -52.5t-83 -18.5q-40 0 -68.5 12.5t-48.5 27.5q-23 18 -38 40h-5v-280h-135v910zM325 115q26 0 49 10t40 27t26.5 41t9.5 52t-9.5 52
t-26.5 41t-40 27t-49 10t-49 -10t-40 -27t-26.5 -41t-9.5 -52t9.5 -52t26.5 -41t40 -27t49 -10z" />
    <glyph glyph-name="ydieresis" unicode="&#xff;" horiz-adv-x="510" 
d="M125 -210q-19 0 -35.5 2t-28.5 5q-14 4 -26 8v125q7 -3 16 -5q17 -5 39 -5q34 0 54 17t31 43l10 25l-190 485h145l115 -325h5l110 325h145l-200 -530q-31 -83 -76.5 -126.5t-113.5 -43.5zM145 555q-30 0 -52.5 22.5t-22.5 52.5t22.5 52.5t52.5 22.5t52.5 -22.5
t22.5 -52.5t-22.5 -52.5t-52.5 -22.5zM365 555q-30 0 -52.5 22.5t-22.5 52.5t22.5 52.5t52.5 22.5t52.5 -22.5t22.5 -52.5t-22.5 -52.5t-52.5 -22.5z" />
    <glyph glyph-name="Amacron" unicode="&#x100;" horiz-adv-x="720" 
d="M275 700h170l270 -700h-160l-60 160h-270l-60 -160h-160zM445 295l-83 230h-4l-83 -230h170zM200 910h320v-100h-320v100z" />
    <glyph glyph-name="amacron" unicode="&#x101;" horiz-adv-x="540" 
d="M190 -10q-34 0 -61.5 10.5t-47 29.5t-30.5 44.5t-11 55.5q0 60 38.5 102.5t106.5 54.5l155 28q-4 26 -25.5 45.5t-59.5 19.5q-26 0 -46.5 -8.5t-34.5 -19.5q-17 -12 -29 -27l-80 80q21 26 51 47q26 18 63 33t86 15q47 0 85.5 -15t66.5 -41.5t43 -62t15 -76.5v-305h-135
v60h-5q-16 -20 -37 -35q-18 -14 -45.5 -24.5t-62.5 -10.5zM235 100q45 0 75 30.5t30 79.5v10l-110 -20q-26 -5 -40.5 -18t-14.5 -32q0 -23 15 -36.5t45 -13.5zM120 690h320v-100h-320v100z" />
    <glyph glyph-name="Abreve" unicode="&#x102;" horiz-adv-x="720" 
d="M275 700h170l270 -700h-160l-60 160h-270l-60 -160h-160zM445 295l-83 230h-4l-83 -230h170zM360 785q-36 0 -65.5 11.5t-50.5 31.5t-32.5 47.5t-11.5 59.5h100q0 -26 17 -43t43 -17t43 17t17 43h100q0 -32 -11.5 -59.5t-32.5 -47.5t-50.5 -31.5t-65.5 -11.5z" />
    <glyph glyph-name="abreve" unicode="&#x103;" horiz-adv-x="540" 
d="M190 -10q-34 0 -61.5 10.5t-47 29.5t-30.5 44.5t-11 55.5q0 60 38.5 102.5t106.5 54.5l155 28q-4 26 -25.5 45.5t-59.5 19.5q-26 0 -46.5 -8.5t-34.5 -19.5q-17 -12 -29 -27l-80 80q21 26 51 47q26 18 63 33t86 15q47 0 85.5 -15t66.5 -41.5t43 -62t15 -76.5v-305h-135
v60h-5q-16 -20 -37 -35q-18 -14 -45.5 -24.5t-62.5 -10.5zM235 100q45 0 75 30.5t30 79.5v10l-110 -20q-26 -5 -40.5 -18t-14.5 -32q0 -23 15 -36.5t45 -13.5zM280 555q-36 0 -65.5 11.5t-50.5 31.5t-32.5 47.5t-11.5 59.5h100q0 -26 17 -43t43 -17t43 17t17 43h100
q0 -32 -11.5 -59.5t-32.5 -47.5t-50.5 -31.5t-65.5 -11.5z" />
    <glyph glyph-name="Aogonek" unicode="&#x104;" horiz-adv-x="720" 
d="M580 -230q-53 0 -84 29.5t-31 72.5q0 40 25.5 74t64.5 54l-60 160h-270l-60 -160h-160l270 700h170l270 -700h-65q-50 -30 -70 -57t-20 -48q0 -19 11.5 -32t31.5 -13q24 0 47 10v-75q-35 -15 -70 -15zM445 295l-83 230h-4l-83 -230h170z" />
    <glyph glyph-name="aogonek" unicode="&#x105;" horiz-adv-x="540" 
d="M405 -230q-53 0 -84 29.5t-31 72.5q0 40 25.5 74t64.5 54h-40v60h-5q-16 -20 -37 -35q-18 -14 -45.5 -24.5t-62.5 -10.5q-34 0 -61.5 10.5t-47 29.5t-30.5 44.5t-11 55.5q0 60 38.5 102.5t106.5 54.5l155 28q-4 26 -25.5 45.5t-59.5 19.5q-26 0 -46.5 -8.5t-34.5 -19.5
q-17 -12 -29 -27l-80 80q21 26 51 47q26 18 63 33t86 15q47 0 85.5 -15t66.5 -41.5t43 -62t15 -76.5v-305q-50 -30 -70 -57t-20 -48q0 -19 11.5 -32t31.5 -13q24 0 47 10v-75q-35 -15 -70 -15zM235 100q45 0 75 30.5t30 79.5v10l-110 -20q-26 -5 -40.5 -18t-14.5 -32
q0 -23 15 -36.5t45 -13.5z" />
    <glyph glyph-name="Cacute" unicode="&#x106;" horiz-adv-x="745" 
d="M425 -15q-81 0 -150.5 29t-120.5 78.5t-80 116t-29 141.5t29 141.5t80 116t120.5 78.5t150.5 29q73 0 128.5 -22t92.5 -48q43 -31 74 -70l-100 -100q-22 28 -51 50q-25 19 -61 34.5t-83 15.5t-88 -17.5t-71.5 -48t-48 -71.5t-17.5 -88t17.5 -88t48 -71.5t71.5 -48
t88 -17.5q49 0 86 15.5t63 34.5q30 22 51 50l100 -100q-31 -39 -75 -70q-38 -26 -94 -48t-131 -22zM435 935h140l-110 -150h-110z" />
    <glyph glyph-name="cacute" unicode="&#x107;" horiz-adv-x="520" 
d="M295 -10q-54 0 -101.5 20t-83 55t-55.5 81t-20 99q0 52 20 98.5t55.5 81.5t83 55t101.5 20q53 0 91 -15.5t64 -34.5q30 -22 50 -50l-85 -85q-14 17 -32 30q-16 11 -38 20.5t-50 9.5q-26 0 -49 -10t-40 -27t-26.5 -41t-9.5 -52t9.5 -52t26.5 -41t40 -27t49 -10
q28 0 50 9.5t38 20.5q18 13 32 30l85 -85q-20 -28 -50 -50q-26 -19 -64 -34.5t-91 -15.5zM310 705h140l-110 -150h-110z" />
    <glyph glyph-name="Ccircumflex" unicode="&#x108;" horiz-adv-x="745" 
d="M425 -15q-81 0 -150.5 29t-120.5 78.5t-80 116t-29 141.5t29 141.5t80 116t120.5 78.5t150.5 29q73 0 128.5 -22t92.5 -48q43 -31 74 -70l-100 -100q-22 28 -51 50q-25 19 -61 34.5t-83 15.5t-88 -17.5t-71.5 -48t-48 -71.5t-17.5 -88t17.5 -88t48 -71.5t71.5 -48
t88 -17.5q49 0 86 15.5t63 34.5q30 22 51 50l100 -100q-31 -39 -75 -70q-38 -26 -94 -48t-131 -22zM355 935h120l120 -150h-120l-60 80l-60 -80h-120z" />
    <glyph glyph-name="ccircumflex" unicode="&#x109;" horiz-adv-x="520" 
d="M295 -10q-54 0 -101.5 20t-83 55t-55.5 81t-20 99q0 52 20 98.5t55.5 81.5t83 55t101.5 20q53 0 91 -15.5t64 -34.5q30 -22 50 -50l-85 -85q-14 17 -32 30q-16 11 -38 20.5t-50 9.5q-26 0 -49 -10t-40 -27t-26.5 -41t-9.5 -52t9.5 -52t26.5 -41t40 -27t49 -10
q28 0 50 9.5t38 20.5q18 13 32 30l85 -85q-20 -28 -50 -50q-26 -19 -64 -34.5t-91 -15.5zM230 705h120l120 -150h-120l-60 80l-60 -80h-120z" />
    <glyph glyph-name="Cdotaccent" unicode="&#x10a;" horiz-adv-x="745" 
d="M425 -15q-81 0 -150.5 29t-120.5 78.5t-80 116t-29 141.5t29 141.5t80 116t120.5 78.5t150.5 29q73 0 128.5 -22t92.5 -48q43 -31 74 -70l-100 -100q-22 28 -51 50q-25 19 -61 34.5t-83 15.5t-88 -17.5t-71.5 -48t-48 -71.5t-17.5 -88t17.5 -88t48 -71.5t71.5 -48
t88 -17.5q49 0 86 15.5t63 34.5q30 22 51 50l100 -100q-31 -39 -75 -70q-38 -26 -94 -48t-131 -22zM417 785q-32 0 -54.5 22.5t-22.5 52.5t22.5 52.5t54.5 22.5t55 -22.5t23 -52.5t-23 -52.5t-55 -22.5z" />
    <glyph glyph-name="cdotaccent" unicode="&#x10b;" horiz-adv-x="520" 
d="M295 -10q-54 0 -101.5 20t-83 55t-55.5 81t-20 99q0 52 20 98.5t55.5 81.5t83 55t101.5 20q53 0 91 -15.5t64 -34.5q30 -22 50 -50l-85 -85q-14 17 -32 30q-16 11 -38 20.5t-50 9.5q-26 0 -49 -10t-40 -27t-26.5 -41t-9.5 -52t9.5 -52t26.5 -41t40 -27t49 -10
q28 0 50 9.5t38 20.5q18 13 32 30l85 -85q-20 -28 -50 -50q-26 -19 -64 -34.5t-91 -15.5zM287 555q-32 0 -54.5 22.5t-22.5 52.5t22.5 52.5t54.5 22.5t55 -22.5t23 -52.5t-23 -52.5t-55 -22.5z" />
    <glyph glyph-name="Ccaron" unicode="&#x10c;" horiz-adv-x="745" 
d="M425 -15q-81 0 -150.5 29t-120.5 78.5t-80 116t-29 141.5t29 141.5t80 116t120.5 78.5t150.5 29q73 0 128.5 -22t92.5 -48q43 -31 74 -70l-100 -100q-22 28 -51 50q-25 19 -61 34.5t-83 15.5t-88 -17.5t-71.5 -48t-48 -71.5t-17.5 -88t17.5 -88t48 -71.5t71.5 -48
t88 -17.5q49 0 86 15.5t63 34.5q30 22 51 50l100 -100q-31 -39 -75 -70q-38 -26 -94 -48t-131 -22zM235 935h120l60 -80l60 80h120l-120 -150h-120z" />
    <glyph glyph-name="ccaron" unicode="&#x10d;" horiz-adv-x="520" 
d="M295 -10q-54 0 -101.5 20t-83 55t-55.5 81t-20 99q0 52 20 98.5t55.5 81.5t83 55t101.5 20q53 0 91 -15.5t64 -34.5q30 -22 50 -50l-85 -85q-14 17 -32 30q-16 11 -38 20.5t-50 9.5q-26 0 -49 -10t-40 -27t-26.5 -41t-9.5 -52t9.5 -52t26.5 -41t40 -27t49 -10
q28 0 50 9.5t38 20.5q18 13 32 30l85 -85q-20 -28 -50 -50q-26 -19 -64 -34.5t-91 -15.5zM110 705h120l60 -80l60 80h120l-120 -150h-120z" />
    <glyph glyph-name="Dcaron" unicode="&#x10e;" horiz-adv-x="760" 
d="M90 700h255q81 0 148.5 -27.5t117 -74.5t77 -111t27.5 -137t-27.5 -137t-77 -111t-117 -74.5t-148.5 -27.5h-255v700zM345 140q47 0 86.5 16t68 44t44.5 66.5t16 83.5t-16 83.5t-44.5 66.5t-68 44t-86.5 16h-105v-420h105zM195 935h120l60 -80l60 80h120l-120 -150h-120z
" />
    <glyph glyph-name="dcaron" unicode="&#x10f;" horiz-adv-x="680" 
d="M255 -10q-43 0 -83 18.5t-70.5 52.5t-48.5 81t-18 103t18 103t48.5 80.5t70.5 52.5t83 19q39 0 68 -12.5t49 -27.5q23 -18 38 -40h5v280h135v-700h-135v70h-5q-15 -22 -38 -40q-20 -15 -49 -27.5t-68 -12.5zM295 115q26 0 49 10t40 27t26.5 41t9.5 52t-9.5 52t-26.5 41
t-40 27t-49 10t-49 -10t-40 -27t-26.5 -41t-9.5 -52t9.5 -52t26.5 -41t40 -27t49 -10zM635 700h125l-70 -150h-100z" />
    <glyph glyph-name="Dcroat" unicode="&#x110;" horiz-adv-x="770" 
d="M100 290h-85v120h85v290h255q81 0 148.5 -27.5t117 -74.5t77 -111t27.5 -137t-27.5 -137t-77 -111t-117 -74.5t-148.5 -27.5h-255v290zM355 140q47 0 86.5 16t68 44t44.5 66.5t16 83.5t-16 83.5t-44.5 66.5t-68 44t-86.5 16h-105v-150h135v-120h-135v-150h105z" />
    <glyph glyph-name="dcroat" unicode="&#x111;" horiz-adv-x="620" 
d="M250 -10q-43 0 -82 18t-68.5 49.5t-47 75.5t-17.5 97q0 52 17.5 96.5t47 76t68.5 49.5t82 18q39 0 67.5 -12.5t46.5 -27.5q21 -18 36 -40h5v130h-115v120h115v60h135v-60h80v-120h-80v-520h-135v70h-5q-15 -22 -36 -40q-18 -15 -46.5 -27.5t-67.5 -12.5zM290 115
q53 0 86.5 33t33.5 82t-33.5 82t-86.5 33t-86.5 -33t-33.5 -82t33.5 -82t86.5 -33z" />
    <glyph glyph-name="Emacron" unicode="&#x112;" horiz-adv-x="665" 
d="M90 700h520v-140h-370v-135h290v-135h-290v-150h380v-140h-530v700zM195 910h320v-100h-320v100z" />
    <glyph glyph-name="emacron" unicode="&#x113;" horiz-adv-x="570" 
d="M295 -10q-54 0 -101.5 20t-83 55t-55.5 81t-20 99q0 52 20 98.5t55 81.5t81 55t99 20q51 0 95.5 -19.5t77.5 -52.5t52.5 -77.5t19.5 -95.5q0 -14 -1 -24.5t-2 -18.5q-1 -10 -2 -17h-355q11 -34 42.5 -59.5t87.5 -25.5q32 0 56 8t41 19q19 12 33 28l70 -95
q-22 -22 -54 -40q-27 -15 -66 -27.5t-90 -12.5zM395 295q-11 34 -39.5 59.5t-70.5 25.5t-70.5 -25.5t-39.5 -59.5h220zM125 690h320v-100h-320v100z" />
    <glyph glyph-name="Ebreve" unicode="&#x114;" horiz-adv-x="665" 
d="M90 700h520v-140h-370v-135h290v-135h-290v-150h380v-140h-530v700zM355 785q-36 0 -65.5 11.5t-50.5 31.5t-32.5 47.5t-11.5 59.5h100q0 -26 17 -43t43 -17t43 17t17 43h100q0 -32 -11.5 -59.5t-32.5 -47.5t-50.5 -31.5t-65.5 -11.5z" />
    <glyph glyph-name="ebreve" unicode="&#x115;" horiz-adv-x="570" 
d="M295 -10q-54 0 -101.5 20t-83 55t-55.5 81t-20 99q0 52 20 98.5t55 81.5t81 55t99 20q51 0 95.5 -19.5t77.5 -52.5t52.5 -77.5t19.5 -95.5q0 -14 -1 -24.5t-2 -18.5q-1 -10 -2 -17h-355q11 -34 42.5 -59.5t87.5 -25.5q32 0 56 8t41 19q19 12 33 28l70 -95
q-22 -22 -54 -40q-27 -15 -66 -27.5t-90 -12.5zM395 295q-11 34 -39.5 59.5t-70.5 25.5t-70.5 -25.5t-39.5 -59.5h220zM285 555q-36 0 -65.5 11.5t-50.5 31.5t-32.5 47.5t-11.5 59.5h100q0 -26 17 -43t43 -17t43 17t17 43h100q0 -32 -11.5 -59.5t-32.5 -47.5t-50.5 -31.5
t-65.5 -11.5z" />
    <glyph glyph-name="Edotaccent" unicode="&#x116;" horiz-adv-x="665" 
d="M90 700h520v-140h-370v-135h290v-135h-290v-150h380v-140h-530v700zM357 785q-32 0 -54.5 22.5t-22.5 52.5t22.5 52.5t54.5 22.5t55 -22.5t23 -52.5t-23 -52.5t-55 -22.5z" />
    <glyph glyph-name="edotaccent" unicode="&#x117;" horiz-adv-x="570" 
d="M295 -10q-54 0 -101.5 20t-83 55t-55.5 81t-20 99q0 52 20 98.5t55 81.5t81 55t99 20q51 0 95.5 -19.5t77.5 -52.5t52.5 -77.5t19.5 -95.5q0 -14 -1 -24.5t-2 -18.5q-1 -10 -2 -17h-355q11 -34 42.5 -59.5t87.5 -25.5q32 0 56 8t41 19q19 12 33 28l70 -95
q-22 -22 -54 -40q-27 -15 -66 -27.5t-90 -12.5zM395 295q-11 34 -39.5 59.5t-70.5 25.5t-70.5 -25.5t-39.5 -59.5h220zM285 555q-32 0 -54.5 22.5t-22.5 52.5t22.5 52.5t54.5 22.5t55 -22.5t23 -52.5t-23 -52.5t-55 -22.5z" />
    <glyph glyph-name="Eogonek" unicode="&#x118;" horiz-adv-x="665" 
d="M550 -230q-53 0 -84 29.5t-31 72.5q0 40 25.5 74t64.5 54h-435v700h520v-140h-370v-135h290v-135h-290v-150h380v-140q-50 -30 -70 -57t-20 -48q0 -19 11.5 -32t31.5 -13q24 0 47 10v-75q-35 -15 -70 -15z" />
    <glyph glyph-name="eogonek" unicode="&#x119;" horiz-adv-x="570" 
d="M370 -230q-53 0 -84 29.5t-31 72.5q0 69 61 119q-5 -1 -10.5 -1h-10.5q-54 0 -101.5 20t-83 55t-55.5 81t-20 99q0 52 20 98.5t55 81.5t81 55t99 20q51 0 95.5 -19.5t77.5 -52.5t52.5 -77.5t19.5 -95.5q0 -14 -1 -24.5t-2 -18.5q-1 -10 -2 -17h-355q11 -34 42.5 -59.5
t87.5 -25.5q32 0 56 8t41 19q19 12 33 28l70 -95q-5 -5 -13 -11q-7 -5 -17.5 -13t-27.5 -18q-46 -27 -71.5 -60.5t-25.5 -72.5q0 -19 11.5 -32t31.5 -13q24 0 47 10v-75q-35 -15 -70 -15zM395 295q-11 34 -39.5 59.5t-70.5 25.5t-70.5 -25.5t-39.5 -59.5h220z" />
    <glyph glyph-name="Ecaron" unicode="&#x11a;" horiz-adv-x="665" 
d="M90 700h520v-140h-370v-135h290v-135h-290v-150h380v-140h-530v700zM175 935h120l60 -80l60 80h120l-120 -150h-120z" />
    <glyph glyph-name="ecaron" unicode="&#x11b;" horiz-adv-x="570" 
d="M295 -10q-54 0 -101.5 20t-83 55t-55.5 81t-20 99q0 52 20 98.5t55 81.5t81 55t99 20q51 0 95.5 -19.5t77.5 -52.5t52.5 -77.5t19.5 -95.5q0 -14 -1 -24.5t-2 -18.5q-1 -10 -2 -17h-355q11 -34 42.5 -59.5t87.5 -25.5q32 0 56 8t41 19q19 12 33 28l70 -95
q-22 -22 -54 -40q-27 -15 -66 -27.5t-90 -12.5zM395 295q-11 34 -39.5 59.5t-70.5 25.5t-70.5 -25.5t-39.5 -59.5h220zM105 705h120l60 -80l60 80h120l-120 -150h-120z" />
    <glyph glyph-name="Gcircumflex" unicode="&#x11c;" horiz-adv-x="795" 
d="M425 -15q-81 0 -150.5 29t-120.5 78.5t-80 116t-29 141.5t29 141.5t80 116t120.5 78.5t150.5 29q73 0 128.5 -22t92.5 -48q43 -31 74 -70l-100 -100q-22 28 -51 50q-25 19 -61 34.5t-83 15.5t-88 -17.5t-71.5 -48t-48 -71.5t-17.5 -88t17.5 -88t48 -71.5t71.5 -48
t88 -17.5q38 0 66.5 8t48.5 19q23 12 40 28v85h-130v120h280v-265q-33 -38 -78 -68q-38 -26 -95 -46.5t-132 -20.5zM350 935h120l120 -150h-120l-60 80l-60 -80h-120z" />
    <glyph glyph-name="gcircumflex" unicode="&#x11d;" horiz-adv-x="600" 
d="M270 -210q-55 0 -95 15.5t-67 34.5q-32 22 -53 50l85 85q15 -17 35 -30q17 -11 41 -20.5t54 -9.5q28 0 52 10t41 27.5t27 42.5t10 55v40h-5q-15 -22 -36 -40q-18 -15 -46.5 -27.5t-67.5 -12.5q-41 0 -79 18t-67 50t-46.5 77.5t-17.5 99.5t17.5 99.5t46.5 77.5t67 50
t79 18q39 0 67.5 -12.5t46.5 -27.5q21 -18 36 -40h5v70h135v-440q0 -56 -19.5 -104t-55 -82.5t-84 -54t-106.5 -19.5zM285 135q49 0 82 33.5t33 86.5t-33 86.5t-82 33.5t-82 -33.5t-33 -86.5t33 -86.5t82 -33.5zM235 705h120l120 -150h-120l-60 80l-60 -80h-120z" />
    <glyph glyph-name="Gbreve" unicode="&#x11e;" horiz-adv-x="795" 
d="M425 -15q-81 0 -150.5 29t-120.5 78.5t-80 116t-29 141.5t29 141.5t80 116t120.5 78.5t150.5 29q73 0 128.5 -22t92.5 -48q43 -31 74 -70l-100 -100q-22 28 -51 50q-25 19 -61 34.5t-83 15.5t-88 -17.5t-71.5 -48t-48 -71.5t-17.5 -88t17.5 -88t48 -71.5t71.5 -48
t88 -17.5q38 0 66.5 8t48.5 19q23 12 40 28v85h-130v120h280v-265q-33 -38 -78 -68q-38 -26 -95 -46.5t-132 -20.5zM410 785q-36 0 -65.5 11.5t-50.5 31.5t-32.5 47.5t-11.5 59.5h100q0 -26 17 -43t43 -17t43 17t17 43h100q0 -32 -11.5 -59.5t-32.5 -47.5t-50.5 -31.5
t-65.5 -11.5z" />
    <glyph glyph-name="gbreve" unicode="&#x11f;" horiz-adv-x="600" 
d="M270 -210q-55 0 -95 15.5t-67 34.5q-32 22 -53 50l85 85q15 -17 35 -30q17 -11 41 -20.5t54 -9.5q28 0 52 10t41 27.5t27 42.5t10 55v40h-5q-15 -22 -36 -40q-18 -15 -46.5 -27.5t-67.5 -12.5q-41 0 -79 18t-67 50t-46.5 77.5t-17.5 99.5t17.5 99.5t46.5 77.5t67 50
t79 18q39 0 67.5 -12.5t46.5 -27.5q21 -18 36 -40h5v70h135v-440q0 -56 -19.5 -104t-55 -82.5t-84 -54t-106.5 -19.5zM285 135q49 0 82 33.5t33 86.5t-33 86.5t-82 33.5t-82 -33.5t-33 -86.5t33 -86.5t82 -33.5zM295 554q-36 0 -65.5 11.5t-50.5 31.5t-32.5 47.5t-11.5 59.5
h100q0 -26 17 -43t43 -17t43 17t17 43h100q0 -32 -11.5 -59.5t-32.5 -47.5t-50.5 -31.5t-65.5 -11.5z" />
    <glyph glyph-name="Gdotaccent" unicode="&#x120;" horiz-adv-x="795" 
d="M425 -15q-81 0 -150.5 29t-120.5 78.5t-80 116t-29 141.5t29 141.5t80 116t120.5 78.5t150.5 29q73 0 128.5 -22t92.5 -48q43 -31 74 -70l-100 -100q-22 28 -51 50q-25 19 -61 34.5t-83 15.5t-88 -17.5t-71.5 -48t-48 -71.5t-17.5 -88t17.5 -88t48 -71.5t71.5 -48
t88 -17.5q38 0 66.5 8t48.5 19q23 12 40 28v85h-130v120h280v-265q-33 -38 -78 -68q-38 -26 -95 -46.5t-132 -20.5zM412 785q-32 0 -54.5 22.5t-22.5 52.5t22.5 52.5t54.5 22.5t55 -22.5t23 -52.5t-23 -52.5t-55 -22.5z" />
    <glyph glyph-name="gdotaccent" unicode="&#x121;" horiz-adv-x="600" 
d="M270 -210q-55 0 -95 15.5t-67 34.5q-32 22 -53 50l85 85q15 -17 35 -30q17 -11 41 -20.5t54 -9.5q28 0 52 10t41 27.5t27 42.5t10 55v40h-5q-15 -22 -36 -40q-18 -15 -46.5 -27.5t-67.5 -12.5q-41 0 -79 18t-67 50t-46.5 77.5t-17.5 99.5t17.5 99.5t46.5 77.5t67 50
t79 18q39 0 67.5 -12.5t46.5 -27.5q21 -18 36 -40h5v70h135v-440q0 -56 -19.5 -104t-55 -82.5t-84 -54t-106.5 -19.5zM285 135q49 0 82 33.5t33 86.5t-33 86.5t-82 33.5t-82 -33.5t-33 -86.5t33 -86.5t82 -33.5zM295 555q-32 0 -54.5 22.5t-22.5 52.5t22.5 52.5t54.5 22.5
t55 -22.5t23 -52.5t-23 -52.5t-55 -22.5z" />
    <glyph glyph-name="Gcommaaccent" unicode="&#x122;" horiz-adv-x="795" 
d="M425 -15q-81 0 -150.5 29t-120.5 78.5t-80 116t-29 141.5t29 141.5t80 116t120.5 78.5t150.5 29q73 0 128.5 -22t92.5 -48q43 -31 74 -70l-100 -100q-22 28 -51 50q-25 19 -61 34.5t-83 15.5t-88 -17.5t-71.5 -48t-48 -71.5t-17.5 -88t17.5 -88t48 -71.5t71.5 -48
t88 -17.5q38 0 66.5 8t48.5 19q23 12 40 28v85h-130v120h280v-265q-33 -38 -78 -68q-38 -26 -95 -46.5t-132 -20.5zM355 -80h125l-70 -155h-100z" />
    <glyph glyph-name="gcommaaccent" unicode="&#x123;" horiz-adv-x="600" 
d="M300 705h100l-45 -150h-125zM270 -210q-55 0 -95 15.5t-67 34.5q-32 22 -53 50l85 85q15 -17 35 -30q17 -11 41 -20.5t54 -9.5q28 0 52 10t41 27.5t27 42.5t10 55v40h-5q-15 -22 -36 -40q-18 -15 -46.5 -27.5t-67.5 -12.5q-41 0 -79 18t-67 50t-46.5 77.5t-17.5 99.5
t17.5 99.5t46.5 77.5t67 50t79 18q39 0 67.5 -12.5t46.5 -27.5q21 -18 36 -40h5v70h135v-440q0 -56 -19.5 -104t-55 -82.5t-84 -54t-106.5 -19.5zM285 135q49 0 82 33.5t33 86.5t-33 86.5t-82 33.5t-82 -33.5t-33 -86.5t33 -86.5t82 -33.5z" />
    <glyph glyph-name="Hcircumflex" unicode="&#x124;" horiz-adv-x="780" 
d="M90 700h150v-275h300v275h150v-700h-150v285h-300v-285h-150v700zM330 935h120l120 -150h-120l-60 80l-60 -80h-120z" />
    <glyph glyph-name="hcircumflex" unicode="&#x125;" horiz-adv-x="600" 
d="M70 700h135v-280h5q16 22 37 40q18 15 45 27.5t63 12.5q37 0 70 -14.5t57.5 -41t38.5 -64.5t14 -85v-295h-135v275q0 45 -24 70t-66 25q-45 0 -75 -30.5t-30 -79.5v-260h-135v700zM240 935h120l120 -150h-120l-60 80l-60 -80h-120z" />
    <glyph glyph-name="Hbar" unicode="&#x126;" horiz-adv-x="790" 
d="M110 490h-90v120h90v90h150v-90h270v90h150v-90h90v-120h-90v-490h-150v265h-270v-265h-150v490zM530 405v85h-270v-85h270z" />
    <glyph glyph-name="hbar" unicode="&#x127;" horiz-adv-x="615" 
d="M85 520h-85v125h85v55h135v-55h120v-125h-120v-130h5q16 22 37 40q18 15 45 27.5t63 12.5q37 0 70 -14.5t57.5 -41t38.5 -64.5t14 -85v-265h-135v245q0 45 -24 70t-66 25q-45 0 -75 -30.5t-30 -79.5v-230h-135v520z" />
    <glyph glyph-name="uni0128" unicode="&#x128;" horiz-adv-x="330" 
d="M90 700h150v-700h-150v700zM-15 780q0 79 30 114.5t77 35.5q25 0 43 -8.5t31.5 -19t26 -19t27.5 -8.5t25 12.5t10 42.5h85q0 -79 -30 -114.5t-75 -35.5q-26 0 -43.5 8t-31 17t-26 17t-29.5 8q-15 0 -25 -12t-10 -38h-85v0z" />
    <glyph glyph-name="uni0129" unicode="&#x129;" horiz-adv-x="265" 
d="M65 490h135v-490h-135v490zM-50 550q0 79 30 114.5t77 35.5q25 0 43 -8.5t31.5 -19t26 -19t27.5 -8.5t25 12.5t10 42.5h85q0 -79 -30 -114.5t-75 -35.5q-26 0 -43.5 8t-31 17t-26 17t-29.5 8q-15 0 -25 -12t-10 -38h-85v0z" />
    <glyph glyph-name="Imacron" unicode="&#x12a;" horiz-adv-x="330" 
d="M90 700h150v-700h-150v700zM5 910h320v-100h-320v100z" />
    <glyph glyph-name="imacron" unicode="&#x12b;" horiz-adv-x="265" 
d="M65 490h135v-490h-135v490zM-25 690h320v-100h-320v100z" />
    <glyph glyph-name="Ibreve" unicode="&#x12c;" horiz-adv-x="330" 
d="M90 700h150v-700h-150v700zM165 785q-36 0 -65.5 11.5t-50.5 31.5t-32.5 47.5t-11.5 59.5h100q0 -26 17 -43t43 -17t43 17t17 43h100q0 -32 -11.5 -59.5t-32.5 -47.5t-50.5 -31.5t-65.5 -11.5z" />
    <glyph glyph-name="ibreve" unicode="&#x12d;" horiz-adv-x="265" 
d="M65 490h135v-490h-135v490zM135 555q-36 0 -65.5 11.5t-50.5 31.5t-32.5 47.5t-11.5 59.5h100q0 -26 17 -43t43 -17t43 17t17 43h100q0 -32 -11.5 -59.5t-32.5 -47.5t-50.5 -31.5t-65.5 -11.5z" />
    <glyph glyph-name="Iogonek" unicode="&#x12e;" horiz-adv-x="330" 
d="M170 -230q-53 0 -84 29.5t-31 72.5q0 40 25.5 74t64.5 54h-55v700h150v-700q-50 -30 -70 -57t-20 -48q0 -19 11.5 -32t31.5 -13q24 0 47 10v-75q-35 -15 -70 -15z" />
    <glyph glyph-name="iogonek" unicode="&#x12f;" horiz-adv-x="265" 
d="M130 -230q-53 0 -84 29.5t-31 72.5q0 40 25.5 74t64.5 54h-40v490h135v-490q-50 -30 -70 -57t-20 -48q0 -19 11.5 -32t31.5 -13q24 0 47 10v-75q-35 -15 -70 -15zM132 555q-32 0 -54.5 22.5t-22.5 52.5t23 52.5t55 22.5t54.5 -22.5t22.5 -52.5t-23 -52.5t-55 -22.5z" />
    <glyph glyph-name="Idotaccent" unicode="&#x130;" horiz-adv-x="330" 
d="M90 700h150v-700h-150v700zM167 780q-32 0 -54.5 22.5t-22.5 52.5t22.5 52.5t54.5 22.5t55 -22.5t23 -52.5t-23 -52.5t-55 -22.5z" />
    <glyph glyph-name="dotlessi" unicode="&#x131;" horiz-adv-x="265" 
d="M65 490h135v-490h-135v490z" />
    <glyph glyph-name="uni0132" unicode="&#x132;" horiz-adv-x="785" 
d="M90 700h150v-700h-150v700zM455 -15q-55 0 -93.5 14t-63.5 31q-29 19 -48 45l100 100q11 -14 27 -25q13 -10 31.5 -17.5t41.5 -7.5q45 0 72.5 28.5t27.5 81.5v465h150v-465q0 -56 -18 -102t-50 -79t-77.5 -51t-99.5 -18z" />
    <glyph glyph-name="uni0133" unicode="&#x133;" horiz-adv-x="530" 
d="M70 490h135v-490h-135v490zM295 -210q-19 0 -35.5 2t-28.5 5q-14 4 -26 8v125q7 -3 16 -5q17 -5 39 -5q30 0 47.5 18t17.5 52v500h135v-520q0 -87 -45 -133.5t-120 -46.5zM137 555q-32 0 -54.5 22.5t-22.5 52.5t23 52.5t55 22.5t54.5 -22.5t22.5 -52.5t-23 -52.5
t-55 -22.5zM392 555q-32 0 -54.5 22.5t-22.5 52.5t23 52.5t55 22.5t54.5 -22.5t22.5 -52.5t-23 -52.5t-55 -22.5z" />
    <glyph glyph-name="Jcircumflex" unicode="&#x134;" horiz-adv-x="525" 
d="M195 -15q-55 0 -93.5 14t-63.5 31q-29 19 -48 45l100 100q11 -14 27 -25q13 -10 31.5 -17.5t41.5 -7.5q45 0 72.5 28.5t27.5 81.5v465h150v-465q0 -56 -18 -102t-50 -79t-77.5 -51t-99.5 -18zM305 935h120l120 -150h-120l-60 80l-60 -80h-120z" />
    <glyph glyph-name="jcircumflex" unicode="&#x135;" horiz-adv-x="265" 
d="M35 -210q-19 0 -35.5 2t-28.5 5q-14 4 -26 8v125q7 -3 16 -5q17 -5 39 -5q30 0 47.5 18t17.5 52v500h135v-520q0 -87 -45 -133.5t-120 -46.5zM70 705h120l120 -150h-120l-60 80l-60 -80h-120z" />
    <glyph glyph-name="Kcommaaccent" unicode="&#x136;" horiz-adv-x="700" 
d="M90 700h150v-300l270 300h180l-260 -290l280 -410h-175l-205 300l-90 -95v-205h-150v700zM315 -80h125l-70 -155h-100z" />
    <glyph glyph-name="kcommaaccent" unicode="&#x137;" horiz-adv-x="545" 
d="M70 700h135v-410l175 200h160l-180 -205l190 -285h-155l-125 190l-65 -75v-115h-135v700zM235 -80h125l-70 -155h-100z" />
    <glyph glyph-name="Lacute" unicode="&#x139;" horiz-adv-x="585" 
d="M90 700h150v-560h325v-140h-475v700zM190 935h140l-110 -150h-110z" />
    <glyph glyph-name="lacute" unicode="&#x13a;" horiz-adv-x="275" 
d="M70 700h135v-700h-135v700zM165 935h140l-110 -150h-110z" />
    <glyph glyph-name="Lcommaaccent" unicode="&#x13b;" horiz-adv-x="585" 
d="M90 700h150v-560h325v-140h-475v700zM275 -80h125l-70 -155h-100z" />
    <glyph glyph-name="lcommaaccent" unicode="&#x13c;" horiz-adv-x="275" 
d="M70 700h135v-700h-135v700zM75 -80h125l-70 -155h-100z" />
    <glyph glyph-name="Lcaron" unicode="&#x13d;" horiz-adv-x="585" 
d="M90 700h150v-560h325v-140h-475v700zM335 700h125l-70 -150h-100z" />
    <glyph glyph-name="lcaron" unicode="&#x13e;" horiz-adv-x="335" 
d="M70 700h135v-700h-135v700zM290 700h125l-70 -150h-100z" />
    <glyph glyph-name="Ldot" unicode="&#x13f;" horiz-adv-x="585" 
d="M90 700h150v-560h325v-140h-475v700zM452 305q-32 0 -54.5 22.5t-22.5 52.5t22.5 52.5t54.5 22.5t55 -22.5t23 -52.5t-23 -52.5t-55 -22.5z" />
    <glyph glyph-name="ldot" unicode="&#x140;" horiz-adv-x="415" 
d="M70 700h135v-700h-135v700zM342 270q-32 0 -54.5 22.5t-22.5 52.5t22.5 52.5t54.5 22.5t55 -22.5t23 -52.5t-23 -52.5t-55 -22.5z" />
    <glyph glyph-name="Lslash" unicode="&#x141;" horiz-adv-x="630" 
d="M135 240l-90 -55l-65 110l155 90v315h150v-240l100 60l65 -110l-165 -95v-175h325v-140h-475v240z" />
    <glyph glyph-name="lslash" unicode="&#x142;" horiz-adv-x="395" 
d="M130 240l-90 -55l-60 100l150 95v320h135v-235l90 55l60 -100l-150 -95v-325h-135v240z" />
    <glyph glyph-name="Nacute" unicode="&#x143;" horiz-adv-x="805" 
d="M90 700h135l340 -435v435h150v-700h-135l-340 435v-435h-150v700zM425 935h140l-110 -150h-110z" />
    <glyph glyph-name="nacute" unicode="&#x144;" 
d="M65 490h135v-70h5q16 22 37 40q18 15 45 27.5t63 12.5q37 0 70 -14.5t57.5 -41t38.5 -64.5t14 -85v-295h-135v275q0 45 -24 70t-66 25q-45 0 -75 -30.5t-30 -79.5v-260h-135v490zM325 705h140l-110 -150h-110z" />
    <glyph glyph-name="Ncommaaccent" unicode="&#x145;" horiz-adv-x="805" 
d="M90 700h135l340 -435v435h150v-700h-135l-340 435v-435h-150v700zM355 -80h125l-70 -155h-100z" />
    <glyph glyph-name="ncommaaccent" unicode="&#x146;" 
d="M65 490h135v-70h5q16 22 37 40q18 15 45 27.5t63 12.5q37 0 70 -14.5t57.5 -41t38.5 -64.5t14 -85v-295h-135v275q0 45 -24 70t-66 25q-45 0 -75 -30.5t-30 -79.5v-260h-135v490zM240 -80h125l-70 -155h-100z" />
    <glyph glyph-name="Ncaron" unicode="&#x147;" horiz-adv-x="805" 
d="M90 700h135l340 -435v435h150v-700h-135l-340 435v-435h-150v700zM225 935h120l60 -80l60 80h120l-120 -150h-120z" />
    <glyph glyph-name="ncaron" unicode="&#x148;" 
d="M65 490h135v-70h5q16 22 37 40q18 15 45 27.5t63 12.5q37 0 70 -14.5t57.5 -41t38.5 -64.5t14 -85v-295h-135v275q0 45 -24 70t-66 25q-45 0 -75 -30.5t-30 -79.5v-260h-135v490zM120 705h120l60 -80l60 80h120l-120 -150h-120z" />
    <glyph glyph-name="napostrophe" unicode="&#x149;" 
d="M65 490h135v-70h5q16 22 37 40q18 15 45 27.5t63 12.5q37 0 70 -14.5t57.5 -41t38.5 -64.5t14 -85v-295h-135v275q0 45 -24 70t-66 25q-45 0 -75 -30.5t-30 -79.5v-260h-135v490zM-5 680h125l-70 -150h-100z" />
    <glyph glyph-name="Eng" unicode="&#x14a;" horiz-adv-x="805" 
d="M485 -240q-45 0 -80.5 12.5t-59.5 27.5q-29 18 -50 40l95 100q10 -11 22 -20q11 -8 26.5 -14t36.5 -6q42 0 66 23.5t24 76.5v20l-325 415v-435h-150v700h135l340 -435v435h150v-700q0 -54 -17 -98.5t-47.5 -76t-72.5 -48.5t-93 -17z" />
    <glyph glyph-name="eng" unicode="&#x14b;" 
d="M375 -220q-17 0 -31.5 2t-25.5 5q-12 4 -23 8v125q6 -3 13 -5q13 -5 32 -5q55 0 55 60v305q0 45 -24 70t-66 25q-45 0 -75 -30.5t-30 -79.5v-260h-135v490h135v-70h5q16 22 37 40q18 15 45 27.5t63 12.5q38 0 71 -14.5t57 -41t38 -64.5t14 -85v-345q0 -83 -41.5 -126.5
t-113.5 -43.5z" />
    <glyph glyph-name="Omacron" unicode="&#x14c;" horiz-adv-x="850" 
d="M425 -15q-81 0 -150.5 29t-120.5 78.5t-80 116t-29 141.5t29 141.5t80 116t120.5 78.5t150.5 29t150.5 -29t120.5 -78.5t80 -116t29 -141.5t-29 -141.5t-80 -116t-120.5 -78.5t-150.5 -29zM425 125q47 0 88 17.5t71.5 48t48 71.5t17.5 88t-17.5 88t-48 71.5t-71.5 48
t-88 17.5t-88 -17.5t-71.5 -48t-48 -71.5t-17.5 -88t17.5 -88t48 -71.5t71.5 -48t88 -17.5zM265 910h320v-100h-320v100z" />
    <glyph glyph-name="omacron" unicode="&#x14d;" horiz-adv-x="590" 
d="M295 -10q-54 0 -101.5 20t-83 55t-55.5 81t-20 99q0 52 20 98.5t55.5 81.5t83 55t101.5 20t101.5 -20t83 -55t55.5 -81.5t20 -98.5q0 -53 -20 -99t-55.5 -81t-83 -55t-101.5 -20zM295 115q26 0 49 10t40 27t26.5 41t9.5 52t-9.5 52t-26.5 41t-40 27t-49 10t-49 -10
t-40 -27t-26.5 -41t-9.5 -52t9.5 -52t26.5 -41t40 -27t49 -10zM135 690h320v-100h-320v100z" />
    <glyph glyph-name="Obreve" unicode="&#x14e;" horiz-adv-x="850" 
d="M425 -15q-81 0 -150.5 29t-120.5 78.5t-80 116t-29 141.5t29 141.5t80 116t120.5 78.5t150.5 29t150.5 -29t120.5 -78.5t80 -116t29 -141.5t-29 -141.5t-80 -116t-120.5 -78.5t-150.5 -29zM425 125q47 0 88 17.5t71.5 48t48 71.5t17.5 88t-17.5 88t-48 71.5t-71.5 48
t-88 17.5t-88 -17.5t-71.5 -48t-48 -71.5t-17.5 -88t17.5 -88t48 -71.5t71.5 -48t88 -17.5zM425 785q-36 0 -65.5 11.5t-50.5 31.5t-32.5 47.5t-11.5 59.5h100q0 -26 17 -43t43 -17t43 17t17 43h100q0 -32 -11.5 -59.5t-32.5 -47.5t-50.5 -31.5t-65.5 -11.5z" />
    <glyph glyph-name="obreve" unicode="&#x14f;" horiz-adv-x="590" 
d="M295 -10q-54 0 -101.5 20t-83 55t-55.5 81t-20 99q0 52 20 98.5t55.5 81.5t83 55t101.5 20t101.5 -20t83 -55t55.5 -81.5t20 -98.5q0 -53 -20 -99t-55.5 -81t-83 -55t-101.5 -20zM295 115q26 0 49 10t40 27t26.5 41t9.5 52t-9.5 52t-26.5 41t-40 27t-49 10t-49 -10
t-40 -27t-26.5 -41t-9.5 -52t9.5 -52t26.5 -41t40 -27t49 -10zM295 555q-36 0 -65.5 11.5t-50.5 31.5t-32.5 47.5t-11.5 59.5h100q0 -26 17 -43t43 -17t43 17t17 43h100q0 -32 -11.5 -59.5t-32.5 -47.5t-50.5 -31.5t-65.5 -11.5z" />
    <glyph glyph-name="Ohungarumlaut" unicode="&#x150;" horiz-adv-x="850" 
d="M425 -15q-81 0 -150.5 29t-120.5 78.5t-80 116t-29 141.5t29 141.5t80 116t120.5 78.5t150.5 29t150.5 -29t120.5 -78.5t80 -116t29 -141.5t-29 -141.5t-80 -116t-120.5 -78.5t-150.5 -29zM425 125q47 0 88 17.5t71.5 48t48 71.5t17.5 88t-17.5 88t-48 71.5t-71.5 48
t-88 17.5t-88 -17.5t-71.5 -48t-48 -71.5t-17.5 -88t17.5 -88t48 -71.5t71.5 -48t88 -17.5zM355 935h135l-115 -150h-100zM545 935h135l-115 -150h-100z" />
    <glyph glyph-name="ohungarumlaut" unicode="&#x151;" horiz-adv-x="590" 
d="M295 -10q-54 0 -101.5 20t-83 55t-55.5 81t-20 99q0 52 20 98.5t55.5 81.5t83 55t101.5 20t101.5 -20t83 -55t55.5 -81.5t20 -98.5q0 -53 -20 -99t-55.5 -81t-83 -55t-101.5 -20zM295 115q26 0 49 10t40 27t26.5 41t9.5 52t-9.5 52t-26.5 41t-40 27t-49 10t-49 -10
t-40 -27t-26.5 -41t-9.5 -52t9.5 -52t26.5 -41t40 -27t49 -10zM230 705h135l-115 -150h-100zM420 705h135l-115 -150h-100z" />
    <glyph glyph-name="OE" unicode="&#x152;" horiz-adv-x="1020" 
d="M415 0q-81 0 -148.5 27.5t-117 74.5t-77 111t-27.5 137t27.5 137t77 111t117 74.5t148.5 27.5h550v-140h-330v-135h250v-135h-250v-150h340v-140h-560zM485 140v420h-70q-47 0 -86.5 -16t-68 -44t-44.5 -66.5t-16 -83.5t16 -83.5t44.5 -66.5t68 -44t86.5 -16h70z" />
    <glyph glyph-name="oe" unicode="&#x153;" horiz-adv-x="930" 
d="M285 -10q-53 0 -98.5 19.5t-79 53.5t-53 81t-19.5 101t19.5 101t53 81t79 53.5t98.5 19.5q49 0 85 -14t59 -31q27 -20 46 -45q19 25 45 45q23 17 56.5 31t78.5 14q49 0 92.5 -18.5t76.5 -51.5t52 -78t19 -97q0 -14 -1 -24t-2 -17q-1 -8 -2 -14h-345q11 -38 41.5 -64
t83.5 -26q30 0 53 8t39 19q18 12 33 28l70 -95q-23 -22 -54 -40q-26 -15 -64 -27.5t-87 -12.5q-48 0 -82 14.5t-57 32.5q-27 21 -46 48q-19 -27 -46 -48q-23 -18 -59 -32.5t-85 -14.5zM285 115q49 0 82 35t33 95t-33 95t-82 35t-82 -35t-33 -95t33 -95t82 -35zM755 295
q-11 34 -39 59.5t-66 25.5q-37 0 -65.5 -25.5t-39.5 -59.5h210z" />
    <glyph glyph-name="Racute" unicode="&#x154;" horiz-adv-x="705" 
d="M90 700h310q56 0 101.5 -17t77.5 -48t49 -74.5t17 -95.5q0 -60 -18.5 -100t-41.5 -63q-26 -27 -60 -42l145 -260h-165l-125 230h-140v-230h-150v700zM395 370q42 0 68.5 26.5t26.5 68.5t-26.5 68.5t-68.5 26.5h-155v-190h155zM375 935h140l-110 -150h-110z" />
    <glyph glyph-name="racute" unicode="&#x155;" horiz-adv-x="380" 
d="M65 490h135v-70h5q16 22 37 40q18 15 45 27.5t63 12.5h10v-145q-5 1 -11 2t-14.5 2t-19.5 1q-49 0 -82 -35t-33 -95v-230h-135v490zM235 705h140l-110 -150h-110z" />
    <glyph glyph-name="Rcommaaccent" unicode="&#x156;" horiz-adv-x="705" 
d="M90 700h310q56 0 101.5 -17t77.5 -48t49 -74.5t17 -95.5q0 -60 -18.5 -100t-41.5 -63q-26 -27 -60 -42l145 -260h-165l-125 230h-140v-230h-150v700zM395 370q42 0 68.5 26.5t26.5 68.5t-26.5 68.5t-68.5 26.5h-155v-190h155zM305 -80h125l-70 -155h-100z" />
    <glyph glyph-name="rcommaaccent" unicode="&#x157;" horiz-adv-x="380" 
d="M65 490h135v-70h5q16 22 37 40q18 15 45 27.5t63 12.5h10v-145q-5 1 -11 2t-14.5 2t-19.5 1q-49 0 -82 -35t-33 -95v-230h-135v490zM70 -80h125l-70 -155h-100z" />
    <glyph glyph-name="Rcaron" unicode="&#x158;" horiz-adv-x="705" 
d="M90 700h310q56 0 101.5 -17t77.5 -48t49 -74.5t17 -95.5q0 -60 -18.5 -100t-41.5 -63q-26 -27 -60 -42l145 -260h-165l-125 230h-140v-230h-150v700zM395 370q42 0 68.5 26.5t26.5 68.5t-26.5 68.5t-68.5 26.5h-155v-190h155zM180 935h120l60 -80l60 80h120l-120 -150
h-120z" />
    <glyph glyph-name="rcaron" unicode="&#x159;" horiz-adv-x="380" 
d="M65 490h135v-70h5q16 22 37 40q18 15 45 27.5t63 12.5h10v-145q-5 1 -11 2t-14.5 2t-19.5 1q-49 0 -82 -35t-33 -95v-230h-135v490zM30 705h120l60 -80l60 80h120l-120 -150h-120z" />
    <glyph glyph-name="Sacute" unicode="&#x15a;" horiz-adv-x="585" 
d="M290 -15q-68 0 -118.5 17t-84.5 38q-40 24 -67 55l100 100q18 -21 43 -38q21 -14 51.5 -25.5t70.5 -11.5q60 0 87.5 23t27.5 57q0 30 -26 47.5t-65 31.5t-84 29t-84 39.5t-65 63t-26 99.5q0 41 17.5 78.5t50 65.5t80 44.5t107.5 16.5q58 0 102.5 -15t73.5 -33
q34 -21 59 -47l-100 -100q-16 17 -35 30q-17 11 -41 20.5t-54 9.5q-57 0 -81 -20t-24 -50t26 -47.5t65 -31.5t84 -29t84 -39.5t65 -63t26 -99.5q0 -43 -18 -82t-52.5 -68.5t-83.5 -47t-111 -17.5zM325 935h140l-110 -150h-110z" />
    <glyph glyph-name="sacute" unicode="&#x15b;" horiz-adv-x="455" 
d="M225 -10q-51 0 -90 14t-66 31q-32 19 -54 45l80 85q15 -16 35 -28q17 -11 41 -19t54 -8q34 0 47 10t13 25q0 14 -18.5 23.5t-46.5 18.5t-60 21t-60 30t-46.5 45t-18.5 67q0 30 13 57t37.5 48t61 33t83.5 12t82.5 -12t59.5 -26q28 -17 48 -37l-80 -85q-12 11 -29 20
q-14 8 -34.5 14t-46.5 6t-38 -9.5t-12 -20.5q0 -14 18.5 -23.5t46.5 -18.5t60 -21t60 -30t46.5 -45t18.5 -67q0 -32 -13 -60t-39 -49t-64 -33.5t-89 -12.5zM250 705h140l-110 -150h-110z" />
    <glyph glyph-name="Scircumflex" unicode="&#x15c;" horiz-adv-x="585" 
d="M290 -15q-68 0 -118.5 17t-84.5 38q-40 24 -67 55l100 100q18 -21 43 -38q21 -14 51.5 -25.5t70.5 -11.5q60 0 87.5 23t27.5 57q0 30 -26 47.5t-65 31.5t-84 29t-84 39.5t-65 63t-26 99.5q0 41 17.5 78.5t50 65.5t80 44.5t107.5 16.5q58 0 102.5 -15t73.5 -33
q34 -21 59 -47l-100 -100q-16 17 -35 30q-17 11 -41 20.5t-54 9.5q-57 0 -81 -20t-24 -50t26 -47.5t65 -31.5t84 -29t84 -39.5t65 -63t26 -99.5q0 -43 -18 -82t-52.5 -68.5t-83.5 -47t-111 -17.5zM235 935h120l120 -150h-120l-60 80l-60 -80h-120z" />
    <glyph glyph-name="scircumflex" unicode="&#x15d;" horiz-adv-x="455" 
d="M225 -10q-51 0 -90 14t-66 31q-32 19 -54 45l80 85q15 -16 35 -28q17 -11 41 -19t54 -8q34 0 47 10t13 25q0 14 -18.5 23.5t-46.5 18.5t-60 21t-60 30t-46.5 45t-18.5 67q0 30 13 57t37.5 48t61 33t83.5 12t82.5 -12t59.5 -26q28 -17 48 -37l-80 -85q-12 11 -29 20
q-14 8 -34.5 14t-46.5 6t-38 -9.5t-12 -20.5q0 -14 18.5 -23.5t46.5 -18.5t60 -21t60 -30t46.5 -45t18.5 -67q0 -32 -13 -60t-39 -49t-64 -33.5t-89 -12.5zM170 705h120l120 -150h-120l-60 80l-60 -80h-120z" />
    <glyph glyph-name="Scedilla" unicode="&#x15e;" horiz-adv-x="585" 
d="M290 -230q-26 0 -46.5 6t-34.5 14q-17 9 -29 20l30 60q9 -8 20 -13q9 -5 22 -8.5t28 -3.5q35 0 35 25t-35 25q-6 0 -10.5 -1t-7.5 -2q-4 -1 -7 -2l-30 35l30 65q-59 4 -103 21t-73 36q-34 22 -59 48l100 100q18 -21 43 -38q21 -14 51.5 -25.5t70.5 -11.5q60 0 87.5 23
t27.5 57q0 30 -26 47.5t-65 31.5t-84 29t-84 39.5t-65 63t-26 99.5q0 41 17.5 78.5t50 65.5t80 44.5t107.5 16.5q58 0 102.5 -15t73.5 -33q34 -21 59 -47l-100 -100q-16 17 -35 30q-17 11 -41 20.5t-54 9.5q-57 0 -81 -20t-24 -50t26 -47.5t65 -31.5t84 -29t84 -39.5t65 -63
t26 -99.5q0 -41 -16 -77.5t-45.5 -65t-71 -46t-92.5 -21.5l-15 -35q24 -2 42 -13q16 -9 29.5 -27t13.5 -50q0 -42 -28.5 -68.5t-81.5 -26.5z" />
    <glyph glyph-name="scedilla" unicode="&#x15f;" horiz-adv-x="455" 
d="M220 -230q-26 0 -46.5 6t-34.5 14q-17 9 -29 20l30 60q9 -8 20 -13q9 -5 22 -8.5t28 -3.5q35 0 35 25t-35 25q-6 0 -10.5 -1t-7.5 -2q-4 -1 -7 -2l-30 35l35 65q-44 5 -76.5 20t-54.5 31q-26 18 -44 39l80 85q15 -16 35 -28q17 -11 41 -19t54 -8q34 0 47 10t13 25
q0 14 -18.5 23.5t-46.5 18.5t-60 21t-60 30t-46.5 45t-18.5 67q0 30 13 57t37.5 48t61 33t83.5 12t82.5 -12t59.5 -26q28 -17 48 -37l-80 -85q-12 11 -29 20q-14 8 -34.5 14t-46.5 6t-38 -9.5t-12 -20.5q0 -14 18.5 -23.5t46.5 -18.5t60 -21t60 -30t46.5 -45t18.5 -67
q0 -30 -11.5 -56.5t-33.5 -47t-52.5 -34t-67.5 -17.5l-20 -35q24 -2 42 -13q16 -9 29.5 -27t13.5 -50q0 -42 -28.5 -68.5t-81.5 -26.5z" />
    <glyph glyph-name="Scaron" unicode="&#x160;" horiz-adv-x="585" 
d="M290 -15q-68 0 -118.5 17t-84.5 38q-40 24 -67 55l100 100q18 -21 43 -38q21 -14 51.5 -25.5t70.5 -11.5q60 0 87.5 23t27.5 57q0 30 -26 47.5t-65 31.5t-84 29t-84 39.5t-65 63t-26 99.5q0 41 17.5 78.5t50 65.5t80 44.5t107.5 16.5q58 0 102.5 -15t73.5 -33
q34 -21 59 -47l-100 -100q-16 17 -35 30q-17 11 -41 20.5t-54 9.5q-57 0 -81 -20t-24 -50t26 -47.5t65 -31.5t84 -29t84 -39.5t65 -63t26 -99.5q0 -43 -18 -82t-52.5 -68.5t-83.5 -47t-111 -17.5zM115 935h120l60 -80l60 80h120l-120 -150h-120z" />
    <glyph glyph-name="scaron" unicode="&#x161;" horiz-adv-x="455" 
d="M225 -10q-51 0 -90 14t-66 31q-32 19 -54 45l80 85q15 -16 35 -28q17 -11 41 -19t54 -8q34 0 47 10t13 25q0 14 -18.5 23.5t-46.5 18.5t-60 21t-60 30t-46.5 45t-18.5 67q0 30 13 57t37.5 48t61 33t83.5 12t82.5 -12t59.5 -26q28 -17 48 -37l-80 -85q-12 11 -29 20
q-14 8 -34.5 14t-46.5 6t-38 -9.5t-12 -20.5q0 -14 18.5 -23.5t46.5 -18.5t60 -21t60 -30t46.5 -45t18.5 -67q0 -32 -13 -60t-39 -49t-64 -33.5t-89 -12.5zM50 705h120l60 -80l60 80h120l-120 -150h-120z" />
    <glyph glyph-name="uni0162" unicode="&#x162;" horiz-adv-x="590" 
d="M290 -230q-26 0 -46.5 6t-34.5 14q-17 9 -29 20l30 60q9 -8 20 -13q9 -5 22 -8.5t28 -3.5q35 0 35 25t-35 25q-6 0 -10.5 -1t-7.5 -2q-4 -1 -7 -2l-30 35l35 75h-40v560h-200v140h550v-140h-200v-560h-30l-25 -45q24 -2 42 -13q16 -9 29.5 -27t13.5 -50
q0 -42 -28.5 -68.5t-81.5 -26.5z" />
    <glyph glyph-name="uni0163" unicode="&#x163;" horiz-adv-x="400" 
d="M235 -230q-26 0 -46.5 6t-34.5 14q-17 9 -29 20l30 60q9 -8 20 -13q9 -5 22 -8.5t28 -3.5q35 0 35 25t-35 25q-6 0 -10.5 -1t-7.5 -2q-4 -1 -7 -2l-30 35l35 75q-21 7 -39 20t-31.5 33t-21.5 49t-8 68v185h-85v125h45q55 0 55 60v90h120v-150h110v-125h-110v-165
q0 -34 17.5 -52t47.5 -18q22 0 39 5q9 2 16 5v-125q-11 -4 -23 -8q-11 -3 -25.5 -5t-31.5 -2l-20 -35q24 -2 42 -13q16 -9 29.5 -27t13.5 -50q0 -42 -28.5 -68.5t-81.5 -26.5z" />
    <glyph glyph-name="Tcaron" unicode="&#x164;" horiz-adv-x="590" 
d="M220 560h-200v140h550v-140h-200v-560h-150v560zM115 935h120l60 -80l60 80h120l-120 -150h-120z" />
    <glyph glyph-name="tcaron" unicode="&#x165;" horiz-adv-x="445" 
d="M270 -10q-75 0 -120 46.5t-45 133.5v185h-85v125h45q55 0 55 60v90h120v-150h110v-125h-110v-165q0 -34 17.5 -52t47.5 -18q22 0 39 5q9 2 16 5v-125q-12 -4 -26 -8q-12 -3 -28.5 -5t-35.5 -2zM370 700h125l-70 -150h-100z" />
    <glyph glyph-name="Tbar" unicode="&#x166;" horiz-adv-x="590" 
d="M220 320h-140v120h140v120h-200v140h550v-140h-200v-120h140v-120h-140v-320h-150v320z" />
    <glyph glyph-name="tbar" unicode="&#x167;" horiz-adv-x="400" 
d="M270 -10q-75 0 -120 46.5t-45 133.5v40h-85v105h85v50h-85v115h45q55 0 55 60v90h120v-150h110v-115h-110v-50h110v-105h-110v-20q0 -34 17.5 -52t47.5 -18q22 0 39 5q9 2 16 5v-125q-12 -4 -26 -8q-12 -3 -28.5 -5t-35.5 -2z" />
    <glyph glyph-name="uni0168" unicode="&#x168;" horiz-adv-x="780" 
d="M390 -15q-68 0 -124 22.5t-96 62.5t-62.5 96t-22.5 124v410h150v-410q0 -38 11.5 -68t32 -52t49 -33.5t62.5 -11.5t62.5 11.5t49 33.5t32 52t11.5 68v410h150v-410q0 -68 -22.5 -124t-62.5 -96t-96.5 -62.5t-123.5 -22.5zM210 780q0 79 30 114.5t77 35.5q25 0 43 -8.5
t31.5 -19t26 -19t27.5 -8.5t25 12.5t10 42.5h85q0 -79 -30 -114.5t-75 -35.5q-26 0 -43.5 8t-31 17t-26 17t-29.5 8q-15 0 -25 -12t-10 -38h-85v0z" />
    <glyph glyph-name="uni0169" unicode="&#x169;" 
d="M245 -10q-38 0 -70.5 14.5t-57 41t-38.5 64.5t-14 85v295h135v-275q0 -45 24 -70t66 -25q45 0 75 30.5t30 79.5v260h135v-490h-135v70h-5q-16 -22 -37 -40q-18 -15 -45.5 -27.5t-62.5 -12.5zM115 550q0 79 30 114.5t77 35.5q25 0 43 -8.5t31.5 -19t26 -19t27.5 -8.5
t25 12.5t10 42.5h85q0 -79 -30 -114.5t-75 -35.5q-26 0 -43.5 8t-31 17t-26 17t-29.5 8q-15 0 -25 -12t-10 -38h-85v0z" />
    <glyph glyph-name="Umacron" unicode="&#x16a;" horiz-adv-x="780" 
d="M390 -15q-68 0 -124 22.5t-96 62.5t-62.5 96t-22.5 124v410h150v-410q0 -38 11.5 -68t32 -52t49 -33.5t62.5 -11.5t62.5 11.5t49 33.5t32 52t11.5 68v410h150v-410q0 -68 -22.5 -124t-62.5 -96t-96.5 -62.5t-123.5 -22.5zM230 910h320v-100h-320v100z" />
    <glyph glyph-name="umacron" unicode="&#x16b;" 
d="M245 -10q-38 0 -70.5 14.5t-57 41t-38.5 64.5t-14 85v295h135v-275q0 -45 24 -70t66 -25q45 0 75 30.5t30 79.5v260h135v-490h-135v70h-5q-16 -22 -37 -40q-18 -15 -45.5 -27.5t-62.5 -12.5zM135 690h320v-100h-320v100z" />
    <glyph glyph-name="Ubreve" unicode="&#x16c;" horiz-adv-x="780" 
d="M390 -15q-68 0 -124 22.5t-96 62.5t-62.5 96t-22.5 124v410h150v-410q0 -38 11.5 -68t32 -52t49 -33.5t62.5 -11.5t62.5 11.5t49 33.5t32 52t11.5 68v410h150v-410q0 -68 -22.5 -124t-62.5 -96t-96.5 -62.5t-123.5 -22.5zM390 785q-36 0 -65.5 11.5t-50.5 31.5
t-32.5 47.5t-11.5 59.5h100q0 -26 17 -43t43 -17t43 17t17 43h100q0 -32 -11.5 -59.5t-32.5 -47.5t-50.5 -31.5t-65.5 -11.5z" />
    <glyph glyph-name="ubreve" unicode="&#x16d;" 
d="M245 -10q-38 0 -70.5 14.5t-57 41t-38.5 64.5t-14 85v295h135v-275q0 -45 24 -70t66 -25q45 0 75 30.5t30 79.5v260h135v-490h-135v70h-5q-16 -22 -37 -40q-18 -15 -45.5 -27.5t-62.5 -12.5zM295 555q-36 0 -65.5 11.5t-50.5 31.5t-32.5 47.5t-11.5 59.5h100
q0 -26 17 -43t43 -17t43 17t17 43h100q0 -32 -11.5 -59.5t-32.5 -47.5t-50.5 -31.5t-65.5 -11.5z" />
    <glyph glyph-name="Uring" unicode="&#x16e;" horiz-adv-x="780" 
d="M390 -15q-68 0 -124 22.5t-96 62.5t-62.5 96t-22.5 124v410h150v-410q0 -38 11.5 -68t32 -52t49 -33.5t62.5 -11.5t62.5 11.5t49 33.5t32 52t11.5 68v410h150v-410q0 -68 -22.5 -124t-62.5 -96t-96.5 -62.5t-123.5 -22.5zM390 760q-24 0 -45 8.5t-36.5 23.5t-24.5 35
t-9 43q0 22 9 42t24.5 35t36.5 24t45 9t45 -9t36.5 -24t24.5 -35t9 -42q0 -23 -9 -43t-24.5 -35t-36.5 -23.5t-45 -8.5zM390 830q15 0 27.5 10.5t12.5 29.5t-12.5 29.5t-27.5 10.5t-27.5 -10.5t-12.5 -29.5t12.5 -29.5t27.5 -10.5z" />
    <glyph glyph-name="uring" unicode="&#x16f;" 
d="M245 -10q-38 0 -70.5 14.5t-57 41t-38.5 64.5t-14 85v295h135v-275q0 -45 24 -70t66 -25q45 0 75 30.5t30 79.5v260h135v-490h-135v70h-5q-16 -22 -37 -40q-18 -15 -45.5 -27.5t-62.5 -12.5zM295 530q-24 0 -45 8.5t-36.5 23.5t-24.5 35t-9 43q0 22 9 42t24.5 35t36.5 24
t45 9t45 -9t36.5 -24t24.5 -35t9 -42q0 -23 -9 -43t-24.5 -35t-36.5 -23.5t-45 -8.5zM295 600q15 0 27.5 10.5t12.5 29.5t-12.5 29.5t-27.5 10.5t-27.5 -10.5t-12.5 -29.5t12.5 -29.5t27.5 -10.5z" />
    <glyph glyph-name="Uhungarumlaut" unicode="&#x170;" horiz-adv-x="780" 
d="M390 -15q-68 0 -124 22.5t-96 62.5t-62.5 96t-22.5 124v410h150v-410q0 -38 11.5 -68t32 -52t49 -33.5t62.5 -11.5t62.5 11.5t49 33.5t32 52t11.5 68v410h150v-410q0 -68 -22.5 -124t-62.5 -96t-96.5 -62.5t-123.5 -22.5zM320 935h135l-115 -150h-100zM510 935h135
l-115 -150h-100z" />
    <glyph glyph-name="uhungarumlaut" unicode="&#x171;" 
d="M245 -10q-38 0 -70.5 14.5t-57 41t-38.5 64.5t-14 85v295h135v-275q0 -45 24 -70t66 -25q45 0 75 30.5t30 79.5v260h135v-490h-135v70h-5q-16 -22 -37 -40q-18 -15 -45.5 -27.5t-62.5 -12.5zM225 705h135l-115 -150h-100zM415 705h135l-115 -150h-100z" />
    <glyph glyph-name="Uogonek" unicode="&#x172;" horiz-adv-x="780" 
d="M495 -230q-53 0 -84 29.5t-31 72.5q0 35 14.5 61t44.5 55q-20 -3 -49 -3q-68 0 -124 22.5t-96 62.5t-62.5 96t-22.5 124v410h150v-410q0 -38 11.5 -68t32 -52t49 -33.5t62.5 -11.5t62.5 11.5t49 33.5t32 52t11.5 68v410h150v-410q0 -81 -30 -143.5t-87 -106.5
q-17 -12 -35 -28.5t-33 -35t-25 -39.5t-10 -42q0 -19 11.5 -32t31.5 -13q24 0 47 10v-75q-35 -15 -70 -15z" />
    <glyph glyph-name="uogonek" unicode="&#x173;" 
d="M460 -230q-53 0 -84 29.5t-31 72.5q0 40 25.5 74t64.5 54h-40v70h-5q-16 -22 -37 -40q-18 -15 -45.5 -27.5t-62.5 -12.5q-38 0 -70.5 14.5t-57 41t-38.5 64.5t-14 85v295h135v-275q0 -45 24 -70t66 -25q45 0 75 30.5t30 79.5v260h135v-490q-50 -30 -70 -57t-20 -48
q0 -19 11.5 -32t31.5 -13q24 0 47 10v-75q-35 -15 -70 -15z" />
    <glyph glyph-name="Wcircumflex" unicode="&#x174;" horiz-adv-x="1070" 
d="M15 700h155l145 -470h5l145 470h140l145 -470h5l145 470h155l-230 -700h-145l-142 455h-6l-142 -455h-145zM475 935h120l120 -150h-120l-60 80l-60 -80h-120z" />
    <glyph glyph-name="wcircumflex" unicode="&#x175;" horiz-adv-x="770" 
d="M-5 490h145l90 -290h5l95 290h110l95 -290h5l90 290h145l-172 -490h-123l-93 285h-4l-93 -285h-123zM325 705h120l120 -150h-120l-60 80l-60 -80h-120z" />
    <glyph glyph-name="Ycircumflex" unicode="&#x176;" horiz-adv-x="670" 
d="M260 250l-265 450h175l163 -300h4l163 300h175l-265 -450v-250h-150v250zM275 935h120l120 -150h-120l-60 80l-60 -80h-120z" />
    <glyph glyph-name="ycircumflex" unicode="&#x177;" horiz-adv-x="510" 
d="M125 -210q-19 0 -35.5 2t-28.5 5q-14 4 -26 8v125q7 -3 16 -5q17 -5 39 -5q34 0 54 17t31 43l10 25l-190 485h145l115 -325h5l110 325h145l-200 -530q-31 -83 -76.5 -126.5t-113.5 -43.5zM195 705h120l120 -150h-120l-60 80l-60 -80h-120z" />
    <glyph glyph-name="Ydieresis" unicode="&#x178;" horiz-adv-x="670" 
d="M260 250l-265 450h175l163 -300h4l163 300h175l-265 -450v-250h-150v250zM225 780q-30 0 -52.5 22.5t-22.5 52.5t22.5 52.5t52.5 22.5t52.5 -22.5t22.5 -52.5t-22.5 -52.5t-52.5 -22.5zM445 780q-30 0 -52.5 22.5t-22.5 52.5t22.5 52.5t52.5 22.5t52.5 -22.5t22.5 -52.5
t-22.5 -52.5t-52.5 -22.5z" />
    <glyph glyph-name="Zacute" unicode="&#x179;" horiz-adv-x="645" 
d="M45 140l355 420h-340v140h530v-140l-355 -420h365v-140h-555v140zM345 935h140l-110 -150h-110z" />
    <glyph glyph-name="zacute" unicode="&#x17a;" horiz-adv-x="500" 
d="M35 125l240 240h-230v125h410v-125l-240 -240h250v-125h-430v125zM270 705h140l-110 -150h-110z" />
    <glyph glyph-name="Zdotaccent" unicode="&#x17b;" horiz-adv-x="645" 
d="M45 140l355 420h-340v140h530v-140l-355 -420h365v-140h-555v140zM322 780q-32 0 -54.5 22.5t-22.5 52.5t22.5 52.5t54.5 22.5t55 -22.5t23 -52.5t-23 -52.5t-55 -22.5z" />
    <glyph glyph-name="zdotaccent" unicode="&#x17c;" horiz-adv-x="500" 
d="M35 125l240 240h-230v125h410v-125l-240 -240h250v-125h-430v125zM247 555q-32 0 -54.5 22.5t-22.5 52.5t22.5 52.5t54.5 22.5t55 -22.5t23 -52.5t-23 -52.5t-55 -22.5z" />
    <glyph glyph-name="Zcaron" unicode="&#x17d;" horiz-adv-x="645" 
d="M45 140l355 420h-340v140h530v-140l-355 -420h365v-140h-555v140zM145 935h120l60 -80l60 80h120l-120 -150h-120z" />
    <glyph glyph-name="zcaron" unicode="&#x17e;" horiz-adv-x="500" 
d="M35 125l240 240h-230v125h410v-125l-240 -240h250v-125h-430v125zM70 705h120l60 -80l60 80h120l-120 -150h-120z" />
    <glyph glyph-name="uni018F" unicode="&#x18f;" horiz-adv-x="795" 
d="M395 -15q-75 0 -140 27.5t-112.5 76t-75 115.5t-27.5 146v22t1 19q1 10 2 19h547q-8 34 -25.5 64t-43.5 52.5t-60.5 35.5t-75.5 13q-48 0 -83.5 -12.5t-60.5 -27.5q-29 -18 -51 -40l-90 105q32 31 75 57q37 22 89.5 40t120.5 18q79 0 146 -27.5t115.5 -76.5t76 -115.5
t27.5 -145.5t-27.5 -146t-75 -115.5t-112.5 -76t-140 -27.5zM395 125q37 0 69.5 13t57.5 34.5t41 49.5t22 58h-380q6 -30 22 -58t41 -49.5t57 -34.5t70 -13z" />
    <glyph glyph-name="florin" unicode="&#x192;" horiz-adv-x="420" 
d="M15 -210q-15 0 -28.5 2t-24.5 5q-12 4 -22 8v120q7 -3 16 -5q17 -5 39 -5q30 0 50 17.5t25 47.5l57 320h-72v120h93l22 120q15 83 60.5 126.5t124.5 43.5q15 0 28 -2.5t24 -5.5q12 -4 23 -7v-120q-7 2 -16 5q-8 2 -18 3.5t-21 1.5q-30 0 -50 -17.5t-25 -47.5l-18 -100
h103v-120h-125l-60 -340q-15 -83 -60.5 -126.5t-124.5 -43.5z" />
    <glyph glyph-name="uni01A0" unicode="&#x1a0;" horiz-adv-x="850" 
d="M425 -15q-81 0 -150.5 29t-120.5 78.5t-80 116t-29 141.5t29 141.5t80 116t120.5 78.5t150.5 29q13 0 25 -1t21 -2q11 -1 19 -2q19 -3 37 -5q16 -2 34.5 -3.5t33.5 -1.5q23 0 36.5 13t13.5 32q0 13 -2.5 26.5t-5.5 24.5q-4 12 -7 24h90q6 -12 10 -26q4 -12 7 -28.5
t3 -35.5q0 -30 -11 -49.5t-24 -30.5q-16 -13 -35 -20q37 -32 67 -73q26 -36 47 -87.5t21 -119.5q0 -75 -29 -141.5t-80 -116t-120.5 -78.5t-150.5 -29zM425 125q47 0 88 17.5t71.5 48t48 71.5t17.5 88t-17.5 88t-48 71.5t-71.5 48t-88 17.5t-88 -17.5t-71.5 -48t-48 -71.5
t-17.5 -88t17.5 -88t48 -71.5t71.5 -48t88 -17.5z" />
    <glyph glyph-name="uni01A1" unicode="&#x1a1;" horiz-adv-x="590" 
d="M295 -10q-54 0 -101.5 20t-83 55t-55.5 81t-20 99q0 52 20 98.5t55.5 81.5t83 55t101.5 20q11 0 21 -1t18 -2q9 -1 16 -2q9 -2 20 -3q9 -1 22 -1.5t28 -0.5q23 0 36.5 13t13.5 32q0 13 -2.5 26.5t-5.5 24.5q-4 12 -7 24h90q6 -12 10 -26q4 -12 7 -28.5t3 -35.5
q0 -32 -12.5 -51.5t-27.5 -30.5q-18 -12 -40 -18q19 -20 35 -46q13 -23 24 -55t11 -74q0 -53 -20 -99t-55.5 -81t-83 -55t-101.5 -20zM295 115q26 0 49 10t40 27t26.5 41t9.5 52t-9.5 52t-26.5 41t-40 27t-49 10t-49 -10t-40 -27t-26.5 -41t-9.5 -52t9.5 -52t26.5 -41
t40 -27t49 -10z" />
    <glyph glyph-name="uni01AF" unicode="&#x1af;" horiz-adv-x="850" 
d="M390 -15q-68 0 -124 22.5t-96 62.5t-62.5 96t-22.5 124v410h150v-410q0 -38 11.5 -68t32 -52t49 -33.5t62.5 -11.5t62.5 11.5t49 33.5t32 52t11.5 68v410h170q19 0 32 13t13 32q0 13 -2.5 26.5t-5.5 24.5q-4 12 -7 24h90q6 -12 10 -26q4 -12 7 -28.5t3 -35.5
q0 -49 -31.5 -79.5t-88.5 -30.5h-40v-330q0 -68 -22.5 -124t-62.5 -96t-96.5 -62.5t-123.5 -22.5z" />
    <glyph glyph-name="uni01B0" unicode="&#x1b0;" horiz-adv-x="685" 
d="M245 -10q-38 0 -70.5 14.5t-57 41t-38.5 64.5t-14 85v295h135v-275q0 -45 24 -70t66 -25q45 0 75 30.5t30 79.5v260h155q19 0 32 13t13 32q0 13 -2.5 26.5t-5.5 24.5q-4 12 -7 24h90q6 -12 10 -26q4 -12 7 -28.5t3 -35.5q0 -49 -31.5 -79.5t-88.5 -30.5h-40v-410h-135v70
h-5q-16 -22 -37 -40q-18 -15 -45.5 -27.5t-62.5 -12.5z" />
    <glyph glyph-name="Gacute" unicode="&#x1f4;" horiz-adv-x="795" 
d="M425 -15q-81 0 -150.5 29t-120.5 78.5t-80 116t-29 141.5t29 141.5t80 116t120.5 78.5t150.5 29q73 0 128.5 -22t92.5 -48q43 -31 74 -70l-100 -100q-22 28 -51 50q-25 19 -61 34.5t-83 15.5t-88 -17.5t-71.5 -48t-48 -71.5t-17.5 -88t17.5 -88t48 -71.5t71.5 -48
t88 -17.5q38 0 66.5 8t48.5 19q23 12 40 28v85h-130v120h280v-265q-33 -38 -78 -68q-38 -26 -95 -46.5t-132 -20.5zM435 935h140l-110 -150h-110z" />
    <glyph glyph-name="gacute" unicode="&#x1f5;" horiz-adv-x="600" 
d="M270 -210q-55 0 -95 15.5t-67 34.5q-32 22 -53 50l85 85q15 -17 35 -30q17 -11 41 -20.5t54 -9.5q28 0 52 10t41 27.5t27 42.5t10 55v40h-5q-15 -22 -36 -40q-18 -15 -46.5 -27.5t-67.5 -12.5q-41 0 -79 18t-67 50t-46.5 77.5t-17.5 99.5t17.5 99.5t46.5 77.5t67 50
t79 18q39 0 67.5 -12.5t46.5 -27.5q21 -18 36 -40h5v70h135v-440q0 -56 -19.5 -104t-55 -82.5t-84 -54t-106.5 -19.5zM285 135q49 0 82 33.5t33 86.5t-33 86.5t-82 33.5t-82 -33.5t-33 -86.5t33 -86.5t82 -33.5zM315 705h140l-110 -150h-110z" />
    <glyph glyph-name="Aringacute" unicode="&#x1fa;" horiz-adv-x="720" 
d="M275 700h20q-11 8 -20 19q-8 9 -14 23t-6 33q0 21 8 39t22 31.5t33 21.5t42 8q22 0 41.5 -8t33.5 -21.5t22 -31.5t8 -39q0 -19 -6 -33t-14 -23q-9 -11 -20 -19h20l270 -700h-160l-60 160h-270l-60 -160h-160zM445 295l-83 230h-4l-83 -230h170zM360 735q15 0 27.5 10.5
t12.5 29.5t-12.5 29.5t-27.5 10.5t-27.5 -10.5t-12.5 -29.5t12.5 -29.5t27.5 -10.5zM360 1010h135l-80 -115h-115z" />
    <glyph glyph-name="aringacute" unicode="&#x1fb;" horiz-adv-x="540" 
d="M190 -10q-34 0 -61.5 10.5t-47 29.5t-30.5 44.5t-11 55.5q0 60 38.5 102.5t106.5 54.5l155 28q-4 26 -25.5 45.5t-59.5 19.5q-26 0 -46.5 -8.5t-34.5 -18.5q-17 -12 -29 -27l-80 79q21 26 49 46q24 17 58 32t78 17q-17 9 -30 21q-11 11 -20.5 27.5t-9.5 41.5q0 21 8 39
t22 31.5t33 21.5t42 8q22 0 41.5 -8t33.5 -21.5t22 -31.5t8 -39q0 -29 -12 -47t-26 -29q-17 -12 -37 -19q42 -11 75 -35q28 -21 51.5 -58t23.5 -97v-305h-135v60h-5q-16 -20 -37 -35q-18 -14 -45.5 -24.5t-62.5 -10.5zM235 100q45 0 75 30.5t30 79.5v10l-110 -20
q-26 -5 -40.5 -18t-14.5 -32q0 -23 15 -36.5t45 -13.5zM295 550q15 0 27.5 10.5t12.5 29.5t-12.5 29.5t-27.5 10.5t-27.5 -10.5t-12.5 -29.5t12.5 -29.5t27.5 -10.5zM295 825h135l-80 -115h-115z" />
    <glyph glyph-name="AEacute" unicode="&#x1fc;" horiz-adv-x="995" 
d="M350 700h590v-140h-330v-135h250v-135h-250v-150h340v-140h-490v170h-240l-95 -170h-165zM460 305v255h-25l-140 -255h165zM570 935h140l-110 -150h-110z" />
    <glyph glyph-name="aeacute" unicode="&#x1fd;" horiz-adv-x="865" 
d="M220 -10q-43 0 -76.5 11.5t-56.5 31t-35 46t-12 56.5q0 34 13 63t38.5 50.5t62.5 34t86 12.5h100q-8 85 -85 85q-26 0 -46.5 -8.5t-34.5 -19.5q-17 -12 -29 -27l-80 80q21 26 50 47q24 18 59.5 33t80.5 15q39 0 69 -12.5t50 -27.5q24 -18 41 -40q20 22 46 40
q23 15 55 27.5t74 12.5q49 0 92.5 -18.5t76.5 -51.5t52 -78t19 -97q0 -14 -1 -24t-2 -17q-1 -8 -2 -14h-345q11 -38 41.5 -64t83.5 -26q30 0 53 8t39 19q18 12 33 28l70 -95q-23 -22 -54 -40q-26 -15 -64 -27.5t-87 -12.5q-48 0 -82 14.5t-57 32.5q-27 21 -46 48
q-19 -27 -46 -48q-23 -18 -59 -32.5t-85 -14.5zM235 100q45 0 75 30t30 75h-100q-30 0 -47.5 -16t-17.5 -39t15 -36.5t45 -13.5zM690 295q-11 34 -39 59.5t-66 25.5q-37 0 -65.5 -25.5t-39.5 -59.5h210zM440 705h140l-110 -150h-110z" />
    <glyph glyph-name="Oslashacute" unicode="&#x1fe;" horiz-adv-x="850" 
d="M35 50l85 85q-21 26 -38 59q-14 28 -25.5 67.5t-11.5 88.5q0 75 29 141.5t80 116t120.5 78.5t150.5 29q53 0 94.5 -11t70.5 -24q34 -16 60 -35l85 85l80 -80l-85 -85q20 -26 37 -59q14 -29 26 -68t12 -88q0 -75 -29 -141.5t-80 -116t-120.5 -78.5t-150.5 -29
q-53 0 -94.5 10.5t-70.5 24.5q-34 15 -60 35l-85 -85zM545 540q-16 9 -34 17q-16 7 -38 12.5t-48 5.5q-47 0 -88 -17.5t-71.5 -48t-48 -71.5t-17.5 -88q0 -29 4.5 -50.5t10.5 -35.5q6 -17 15 -29zM425 125q47 0 88 17.5t71.5 48t48 71.5t17.5 88q0 28 -5 50t-10 36
q-7 17 -15 29l-315 -305q16 -10 34 -18q16 -7 38 -12t48 -5zM455 935h140l-110 -150h-110z" />
    <glyph glyph-name="oslashacute" unicode="&#x1ff;" horiz-adv-x="590" 
d="M30 35l55 60q-14 18 -25 41q-10 20 -17.5 47.5t-7.5 61.5q0 52 20 98.5t55.5 81.5t83 55t101.5 20q34 0 59 -6t42 -14q19 -9 34 -20l60 65l70 -70l-55 -60q14 -18 25 -41q9 -20 17 -47.5t8 -61.5q0 -53 -20 -99t-55.5 -81t-83 -55t-101.5 -20q-34 0 -59 6t-42 14
q-20 9 -34 20l-60 -65zM345 365q-6 2 -14 5q-7 2 -16 3.5t-20 1.5q-26 0 -49 -10t-40 -27t-26.5 -41t-9.5 -52q0 -21 5 -36q2 -8 5 -14zM295 115q26 0 49 10t40 27t26.5 41t9.5 52q0 11 -1.5 20t-3.5 16q-3 8 -5 14l-165 -170q6 -3 14 -5q15 -5 36 -5zM320 705h140
l-110 -150h-110z" />
    <glyph glyph-name="Scommaaccent" unicode="&#x218;" horiz-adv-x="585" 
d="M290 -15q-68 0 -118.5 17t-84.5 38q-40 24 -67 55l100 100q18 -21 43 -38q21 -14 51.5 -25.5t70.5 -11.5q60 0 87.5 23t27.5 57q0 30 -26 47.5t-65 31.5t-84 29t-84 39.5t-65 63t-26 99.5q0 41 17.5 78.5t50 65.5t80 44.5t107.5 16.5q58 0 102.5 -15t73.5 -33
q34 -21 59 -47l-100 -100q-16 17 -35 30q-17 11 -41 20.5t-54 9.5q-57 0 -81 -20t-24 -50t26 -47.5t65 -31.5t84 -29t84 -39.5t65 -63t26 -99.5q0 -43 -18 -82t-52.5 -68.5t-83.5 -47t-111 -17.5zM240 -80h125l-70 -155h-100z" />
    <glyph glyph-name="scommaaccent" unicode="&#x219;" horiz-adv-x="455" 
d="M225 -10q-51 0 -90 14t-66 31q-32 19 -54 45l80 85q15 -16 35 -28q17 -11 41 -19t54 -8q34 0 47 10t13 25q0 14 -18.5 23.5t-46.5 18.5t-60 21t-60 30t-46.5 45t-18.5 67q0 30 13 57t37.5 48t61 33t83.5 12t82.5 -12t59.5 -26q28 -17 48 -37l-80 -85q-12 11 -29 20
q-14 8 -34.5 14t-46.5 6t-38 -9.5t-12 -20.5q0 -14 18.5 -23.5t46.5 -18.5t60 -21t60 -30t46.5 -45t18.5 -67q0 -32 -13 -60t-39 -49t-64 -33.5t-89 -12.5zM160 -80h125l-70 -155h-100z" />
    <glyph glyph-name="uni021A" unicode="&#x21a;" horiz-adv-x="590" 
d="M220 560h-200v140h550v-140h-200v-560h-150v560zM235 -80h125l-70 -155h-100z" />
    <glyph glyph-name="uni021B" unicode="&#x21b;" horiz-adv-x="400" 
d="M270 -10q-75 0 -120 46.5t-45 133.5v185h-85v125h45q55 0 55 60v90h120v-150h110v-125h-110v-165q0 -34 17.5 -52t47.5 -18q22 0 39 5q9 2 16 5v-125q-12 -4 -26 -8q-12 -3 -28.5 -5t-35.5 -2zM175 -80h125l-70 -155h-100z" />
    <glyph glyph-name="uni0232" unicode="&#x232;" horiz-adv-x="670" 
d="M260 250l-265 450h175l163 -300h4l163 300h175l-265 -450v-250h-150v250zM175 910h320v-100h-320v100z" />
    <glyph glyph-name="uni0233" unicode="&#x233;" horiz-adv-x="510" 
d="M125 -210q-19 0 -35.5 2t-28.5 5q-14 4 -26 8v125q7 -3 16 -5q17 -5 39 -5q34 0 54 17t31 43l10 25l-190 485h145l115 -325h5l110 325h145l-200 -530q-31 -83 -76.5 -126.5t-113.5 -43.5zM100 690h320v-100h-320v100z" />
    <glyph glyph-name="uni0244" unicode="&#x244;" horiz-adv-x="790" 
d="M395 -15q-66 0 -120 21.5t-93 60.5t-60.5 93t-21.5 120v80h-90v120h90v220h150v-220h290v220h150v-220h90v-120h-90v-80q0 -66 -21.5 -120t-60.5 -93t-93 -60.5t-120 -21.5zM395 125q64 0 104.5 41.5t40.5 113.5v80h-290v-80q0 -72 40.5 -113.5t104.5 -41.5z" />
    <glyph glyph-name="uni0259" unicode="&#x259;" horiz-adv-x="565" 
d="M275 -10q-51 0 -95.5 19.5t-77.5 52.5t-52.5 77.5t-19.5 95.5q0 13 0.5 24t1.5 19q1 10 3 17h355q-11 34 -42.5 59.5t-87.5 25.5q-32 0 -56 -8.5t-41 -19.5q-19 -12 -33 -27l-70 95q22 22 54 40q27 15 66 27.5t90 12.5q54 0 101.5 -20t83 -55t55.5 -81.5t20 -98.5
q0 -53 -20 -99t-55 -81t-81.5 -55t-98.5 -20zM280 110q42 0 70.5 25.5t39.5 59.5h-220q11 -34 39.5 -59.5t70.5 -25.5z" />
    <glyph glyph-name="uni0289" unicode="&#x289;" horiz-adv-x="625" 
d="M260 -10q-38 0 -70 14.5t-55 40.5t-36.5 63t-13.5 82v46h-65v110h65v144h135v-144h185v144h135v-144h65v-110h-65v-236h-135v70h-5q-15 -22 -36 -40q-18 -15 -44 -27.5t-60 -12.5zM305 120q45 0 72.5 28t27.5 77v11h-185v-26q0 -90 85 -90z" />
    <glyph glyph-name="uni02BC" unicode="&#x2bc;" horiz-adv-x="230" 
d="M75 705h125l-70 -150h-100z" />
    <glyph glyph-name="circumflex" unicode="&#x2c6;" horiz-adv-x="420" 
d="M150 705h120l120 -150h-120l-60 80l-60 -80h-120z" />
    <glyph glyph-name="caron" unicode="&#x2c7;" horiz-adv-x="420" 
d="M30 705h120l60 -80l60 80h120l-120 -150h-120z" />
    <glyph glyph-name="breve" unicode="&#x2d8;" horiz-adv-x="380" 
d="M190 555q-36 0 -65.5 11.5t-50.5 31.5t-32.5 47.5t-11.5 59.5h100q0 -26 17 -43t43 -17t43 17t17 43h100q0 -32 -11.5 -59.5t-32.5 -47.5t-50.5 -31.5t-65.5 -11.5z" />
    <glyph glyph-name="dotaccent" unicode="&#x2d9;" horiz-adv-x="215" 
d="M107 555q-32 0 -54.5 22.5t-22.5 52.5t22.5 52.5t54.5 22.5t55 -22.5t23 -52.5t-23 -52.5t-55 -22.5z" />
    <glyph glyph-name="ring" unicode="&#x2da;" horiz-adv-x="290" 
d="M145 495q-24 0 -45 8.5t-36.5 23.5t-24.5 35t-9 43q0 22 9 42t24.5 35t36.5 24t45 9t45 -9t36.5 -24t24.5 -35t9 -42q0 -23 -9 -43t-24.5 -35t-36.5 -23.5t-45 -8.5zM145 565q15 0 27.5 10.5t12.5 29.5t-12.5 29.5t-27.5 10.5t-27.5 -10.5t-12.5 -29.5t12.5 -29.5
t27.5 -10.5z" />
    <glyph glyph-name="ogonek" unicode="&#x2db;" horiz-adv-x="250" 
d="M150 -230q-53 0 -84 29.5t-31 72.5q0 40 25.5 74t64.5 54h95q-50 -30 -70 -57t-20 -48q0 -19 11.5 -32t31.5 -13q24 0 47 10v-75q-35 -15 -70 -15z" />
    <glyph glyph-name="tilde" unicode="&#x2dc;" horiz-adv-x="415" 
d="M30 560q0 79 30 114.5t77 35.5q25 0 43 -8.5t31.5 -19t26 -19t27.5 -8.5t25 12.5t10 42.5h85q0 -79 -30 -114.5t-75 -35.5q-26 0 -43.5 8t-31 17t-26 17t-29.5 8q-15 0 -25 -12t-10 -38h-85v0z" />
    <glyph glyph-name="hungarumlaut" unicode="&#x2dd;" horiz-adv-x="465" 
d="M110 705h135l-115 -150h-100zM300 705h135l-115 -150h-100z" />
    <glyph glyph-name="acutecomb" unicode="&#x301;" horiz-adv-x="0" 
d="M-370 875h140l-110 -150h-110z" />
    <glyph glyph-name="uni0302" unicode="&#x302;" horiz-adv-x="0" 
d="M-455 875h120l120 -150h-120l-60 80l-60 -80h-120z" />
    <glyph glyph-name="uni0304" unicode="&#x304;" horiz-adv-x="0" 
d="M-550 850h320v-100h-320v100z" />
    <glyph glyph-name="uni0306" unicode="&#x306;" horiz-adv-x="0" 
d="M-390 715q-36 0 -65.5 11.5t-50.5 31.5t-32.5 47.5t-11.5 59.5h100q0 -26 17 -43t43 -17t43 17t17 43h100q0 -32 -11.5 -59.5t-32.5 -47.5t-50.5 -31.5t-65.5 -11.5z" />
    <glyph glyph-name="uni0307" unicode="&#x307;" horiz-adv-x="0" 
d="M-388 720q-32 0 -54.5 22.5t-22.5 52.5t22.5 52.5t54.5 22.5t55 -22.5t23 -52.5t-23 -52.5t-55 -22.5z" />
    <glyph glyph-name="uni0308" unicode="&#x308;" horiz-adv-x="0" 
d="M-505 720q-30 0 -52.5 22.5t-22.5 52.5t22.5 52.5t52.5 22.5t52.5 -22.5t22.5 -52.5t-22.5 -52.5t-52.5 -22.5zM-285 720q-30 0 -52.5 22.5t-22.5 52.5t22.5 52.5t52.5 22.5t52.5 -22.5t22.5 -52.5t-22.5 -52.5t-52.5 -22.5z" />
    <glyph glyph-name="uni0309" unicode="&#x309;" horiz-adv-x="250" 
d="M105 550q6 11 10 22q4 10 7 22t3 26q0 19 -13 32t-32 13q-11 0 -20 -1.5t-16 -3.5q-8 -3 -14 -5v75q10 3 21 7q10 3 23.5 5.5t30.5 2.5q53 0 84 -29t31 -71q0 -21 -5.5 -38t-12.5 -30q-8 -15 -17 -27h-80v0z" />
    <glyph glyph-name="uni030A" unicode="&#x30a;" horiz-adv-x="0" 
d="M-390 720q-24 0 -45 8.5t-36.5 23.5t-24.5 35t-9 43q0 22 9 42t24.5 35t36.5 24t45 9t45 -9t36.5 -24t24.5 -35t9 -42q0 -23 -9 -43t-24.5 -35t-36.5 -23.5t-45 -8.5zM-390 790q15 0 27.5 10.5t12.5 29.5t-12.5 29.5t-27.5 10.5t-27.5 -10.5t-12.5 -29.5t12.5 -29.5
t27.5 -10.5z" />
    <glyph glyph-name="uni030C" unicode="&#x30c;" horiz-adv-x="0" 
d="M-570 875h120l60 -80l60 80h120l-120 -150h-120z" />
    <glyph glyph-name="uni031B" unicode="&#x31b;" horiz-adv-x="220" 
d="M30 480h20q19 0 32 13t13 32q0 13 -2.5 26.5t-5.5 24.5q-4 12 -7 24h90q6 -12 10 -26q4 -12 7 -28.5t3 -35.5q0 -49 -31.5 -79.5t-88.5 -30.5h-40v80z" />
    <glyph glyph-name="uni0323" unicode="&#x323;" horiz-adv-x="215" 
d="M107 -230q-32 0 -54.5 22.5t-22.5 52.5t22.5 52.5t54.5 22.5t55 -22.5t23 -52.5t-23 -52.5t-55 -22.5z" />
    <glyph glyph-name="uni0326" unicode="&#x326;" horiz-adv-x="230" 
d="M75 -80h125l-70 -155h-100z" />
    <glyph glyph-name="Alphatonos" unicode="&#x386;" horiz-adv-x="740" 
d="M290 700h170l270 -700h-160l-60 160h-270l-60 -160h-160zM460 295l-83 230h-4l-83 -230h170zM95 700h140l-110 -150h-110z" />
    <glyph glyph-name="Epsilontonos" unicode="&#x388;" horiz-adv-x="715" 
d="M140 700h520v-140h-370v-135h290v-135h-290v-150h380v-140h-530v700zM-10 700h140l-110 -150h-110z" />
    <glyph glyph-name="Etatonos" unicode="&#x389;" horiz-adv-x="830" 
d="M140 700h150v-275h300v275h150v-700h-150v285h-300v-285h-150v700zM-10 700h140l-110 -150h-110z" />
    <glyph glyph-name="Iotatonos" unicode="&#x38a;" horiz-adv-x="380" 
d="M140 700h150v-700h-150v700zM-10 700h140l-110 -150h-110z" />
    <glyph glyph-name="Omicrontonos" unicode="&#x38c;" horiz-adv-x="870" 
d="M445 -15q-81 0 -150.5 29t-120.5 78.5t-80 116t-29 141.5t29 141.5t80 116t120.5 78.5t150.5 29t150.5 -29t120.5 -78.5t80 -116t29 -141.5t-29 -141.5t-80 -116t-120.5 -78.5t-150.5 -29zM445 125q47 0 88 17.5t71.5 48t48 71.5t17.5 88t-17.5 88t-48 71.5t-71.5 48
t-88 17.5t-88 -17.5t-71.5 -48t-48 -71.5t-17.5 -88t17.5 -88t48 -71.5t71.5 -48t88 -17.5zM30 700h140l-110 -150h-110z" />
    <glyph glyph-name="Upsilontonos" unicode="&#x38e;" horiz-adv-x="805" 
d="M395 250l-265 450h175l163 -300h4l163 300h175l-265 -450v-250h-150v250zM-10 700h140l-110 -150h-110z" />
    <glyph glyph-name="Omegatonos" unicode="&#x38f;" horiz-adv-x="880" 
d="M85 130h124q-15 6 -37.5 26t-44 51.5t-37 74t-15.5 93.5q0 69 27.5 131t77.5 108.5t118.5 73.5t151.5 27q82 0 151 -27t119 -73.5t77.5 -108.5t27.5 -131q0 -51 -15.5 -93.5t-37 -74t-44 -51.5t-37.5 -26h124v-130h-305v130q32 11 61.5 31.5t52.5 48.5t37 63.5t14 76.5
q0 47 -17.5 88t-48 71.5t-71.5 48t-88 17.5t-88 -17.5t-71.5 -48t-48 -71.5t-17.5 -88q0 -41 14 -76.5t37 -63.5t52.5 -48.5t61.5 -31.5v-130h-305v130zM30 700h140l-110 -150h-110z" />
    <glyph glyph-name="iotadieresistonos" unicode="&#x390;" horiz-adv-x="310" 
d="M0 555q-30 0 -52.5 22.5t-22.5 52.5t22.5 52.5t52.5 22.5t52.5 -22.5t22.5 -52.5t-22.5 -52.5t-52.5 -22.5zM135 705h90l-105 -150h-60zM280 555q-30 0 -52.5 22.5t-22.5 52.5t22.5 52.5t52.5 22.5t52.5 -22.5t22.5 -52.5t-22.5 -52.5t-52.5 -22.5zM215 -10
q-68 0 -109 43t-41 122v335h135v-310q0 -60 55 -60q19 0 32 5q7 2 13 5v-120q-11 -6 -24 -10q-11 -4 -26.5 -7t-34.5 -3z" />
    <glyph glyph-name="Alpha" unicode="&#x391;" horiz-adv-x="720" 
d="M275 700h170l270 -700h-160l-60 160h-270l-60 -160h-160zM445 295l-83 230h-4l-83 -230h170z" />
    <glyph glyph-name="Beta" unicode="&#x392;" horiz-adv-x="690" 
d="M90 700h295q52 0 94 -15t71 -40t44.5 -59t15.5 -71q0 -42 -15 -69.5t-33 -44.5q-21 -20 -47 -31q36 -11 65 -34q24 -20 44.5 -52.5t20.5 -83.5q0 -41 -16.5 -77.5t-47.5 -63.5t-75.5 -43t-100.5 -16h-315v700zM395 130q45 0 70 23.5t25 61.5t-25 61.5t-70 23.5h-155v-170
h155zM375 430q38 0 59 20t21 50t-21 50t-59 20h-135v-140h135z" />
    <glyph glyph-name="Gamma" unicode="&#x393;" horiz-adv-x="585" 
d="M90 700h475v-140h-325v-560h-150v700z" />
    <glyph glyph-name="uni0394" unicode="&#x394;" horiz-adv-x="705" 
d="M270 700h165l280 -700h-725zM505 140l-150 390h-5l-150 -390h305z" />
    <glyph glyph-name="Epsilon" unicode="&#x395;" horiz-adv-x="665" 
d="M90 700h520v-140h-370v-135h290v-135h-290v-150h380v-140h-530v700z" />
    <glyph glyph-name="Zeta" unicode="&#x396;" horiz-adv-x="645" 
d="M45 140l355 420h-340v140h530v-140l-355 -420h365v-140h-555v140z" />
    <glyph glyph-name="Eta" unicode="&#x397;" horiz-adv-x="780" 
d="M90 700h150v-275h300v275h150v-700h-150v285h-300v-285h-150v700z" />
    <glyph glyph-name="Theta" unicode="&#x398;" horiz-adv-x="850" 
d="M425 -15q-81 0 -150.5 29t-120.5 78.5t-80 116t-29 141.5t29 141.5t80 116t120.5 78.5t150.5 29t150.5 -29t120.5 -78.5t80 -116t29 -141.5t-29 -141.5t-80 -116t-120.5 -78.5t-150.5 -29zM425 125q47 0 88 17.5t71.5 48t48 71.5t17.5 88t-17.5 88t-48 71.5t-71.5 48
t-88 17.5t-88 -17.5t-71.5 -48t-48 -71.5t-17.5 -88t17.5 -88t48 -71.5t71.5 -48t88 -17.5zM270 405h310v-110h-310v110z" />
    <glyph glyph-name="Iota" unicode="&#x399;" horiz-adv-x="330" 
d="M90 700h150v-700h-150v700z" />
    <glyph glyph-name="Kappa" unicode="&#x39a;" horiz-adv-x="700" 
d="M90 700h150v-300l270 300h180l-260 -290l280 -410h-175l-205 300l-90 -95v-205h-150v700z" />
    <glyph glyph-name="Lambda" unicode="&#x39b;" horiz-adv-x="720" 
d="M275 700h170l270 -700h-160l-193 525h-4l-193 -525h-160z" />
    <glyph glyph-name="Mu" unicode="&#x39c;" horiz-adv-x="930" 
d="M90 700h135l240 -300l240 300h135v-700h-150v460l-225 -280l-225 280v-460h-150v700z" />
    <glyph glyph-name="Nu" unicode="&#x39d;" horiz-adv-x="805" 
d="M90 700h135l340 -435v435h150v-700h-135l-340 435v-435h-150v700z" />
    <glyph glyph-name="Xi" unicode="&#x39e;" horiz-adv-x="680" 
d="M50 140h580v-140h-580v140zM135 425h410v-140h-410v140zM60 700h560v-140h-560v140z" />
    <glyph glyph-name="Omicron" unicode="&#x39f;" horiz-adv-x="850" 
d="M425 -15q-81 0 -150.5 29t-120.5 78.5t-80 116t-29 141.5t29 141.5t80 116t120.5 78.5t150.5 29t150.5 -29t120.5 -78.5t80 -116t29 -141.5t-29 -141.5t-80 -116t-120.5 -78.5t-150.5 -29zM425 125q47 0 88 17.5t71.5 48t48 71.5t17.5 88t-17.5 88t-48 71.5t-71.5 48
t-88 17.5t-88 -17.5t-71.5 -48t-48 -71.5t-17.5 -88t17.5 -88t48 -71.5t71.5 -48t88 -17.5z" />
    <glyph glyph-name="Pi" unicode="&#x3a0;" horiz-adv-x="775" 
d="M90 700h595v-700h-150v560h-295v-560h-150v700z" />
    <glyph glyph-name="Rho" unicode="&#x3a1;" horiz-adv-x="680" 
d="M90 700h295q56 0 102 -17.5t79 -49t51 -74.5t18 -94t-18 -94t-51 -74.5t-79 -49t-102 -17.5h-145v-230h-150v700zM380 370q45 0 72.5 26.5t27.5 68.5t-27.5 68.5t-72.5 26.5h-140v-190h140z" />
    <glyph glyph-name="Sigma" unicode="&#x3a3;" horiz-adv-x="610" 
d="M50 120l195 240l-195 220v120h520v-140h-325l180 -200l-180 -220h325v-140h-520v120z" />
    <glyph glyph-name="Tau" unicode="&#x3a4;" horiz-adv-x="590" 
d="M220 560h-200v140h550v-140h-200v-560h-150v560z" />
    <glyph glyph-name="Upsilon" unicode="&#x3a5;" horiz-adv-x="670" 
d="M260 250l-265 450h175l163 -300h4l163 300h175l-265 -450v-250h-150v250z" />
    <glyph glyph-name="Phi" unicode="&#x3a6;" horiz-adv-x="870" 
d="M360 35q-73 6 -133 32t-102.5 68t-66 98t-23.5 122t23.5 122t66 98t102.5 68t133 32v81h150v-81q73 -6 133 -32t102.5 -68t66 -98t23.5 -122t-23.5 -122t-66 -98t-102.5 -68t-133 -32v-85h-150v85zM360 545q-83 -11 -129 -59t-46 -131t46 -131t129 -59v380zM510 165
q83 11 129 59t46 131t-46 131t-129 59v-380z" />
    <glyph glyph-name="Chi" unicode="&#x3a7;" horiz-adv-x="680" 
d="M240 365l-220 335h175l143 -230h4l143 230h175l-220 -335l240 -365h-175l-163 260h-4l-163 -260h-175z" />
    <glyph glyph-name="Psi" unicode="&#x3a8;" horiz-adv-x="870" 
d="M360 185q-139 11 -217 92t-78 224v199h150v-195q0 -86 37 -127.5t108 -52.5v375h150v-375q71 11 108 52.5t37 127.5v195h150v-199q0 -143 -78 -224t-217 -92v-185h-150v185z" />
    <glyph glyph-name="uni03A9" unicode="&#x3a9;" horiz-adv-x="860" 
d="M65 130h124q-15 6 -37.5 26t-44 51.5t-37 74t-15.5 93.5q0 69 27.5 131t77.5 108.5t118.5 73.5t151.5 27q82 0 151 -27t119 -73.5t77.5 -108.5t27.5 -131q0 -51 -15.5 -93.5t-37 -74t-44 -51.5t-37.5 -26h124v-130h-305v130q32 11 61.5 31.5t52.5 48.5t37 63.5t14 76.5
q0 47 -17.5 88t-48 71.5t-71.5 48t-88 17.5t-88 -17.5t-71.5 -48t-48 -71.5t-17.5 -88q0 -41 14 -76.5t37 -63.5t52.5 -48.5t61.5 -31.5v-130h-305v130z" />
    <glyph glyph-name="Iotadieresis" unicode="&#x3aa;" horiz-adv-x="330" 
d="M55 780q-30 0 -52.5 22.5t-22.5 52.5t22.5 52.5t52.5 22.5t52.5 -22.5t22.5 -52.5t-22.5 -52.5t-52.5 -22.5zM275 780q-30 0 -52.5 22.5t-22.5 52.5t22.5 52.5t52.5 22.5t52.5 -22.5t22.5 -52.5t-22.5 -52.5t-52.5 -22.5zM90 700h150v-700h-150v700z" />
    <glyph glyph-name="Upsilondieresis" unicode="&#x3ab;" horiz-adv-x="670" 
d="M260 250l-265 450h175l163 -300h4l163 300h175l-265 -450v-250h-150v250zM225 780q-30 0 -52.5 22.5t-22.5 52.5t22.5 52.5t52.5 22.5t52.5 -22.5t22.5 -52.5t-22.5 -52.5t-52.5 -22.5zM445 780q-30 0 -52.5 22.5t-22.5 52.5t22.5 52.5t52.5 22.5t52.5 -22.5t22.5 -52.5
t-22.5 -52.5t-52.5 -22.5z" />
    <glyph glyph-name="alphatonos" unicode="&#x3ac;" horiz-adv-x="625" 
d="M255 -10q-43 0 -83 18.5t-70.5 52.5t-48.5 81t-18 103t18 103t48.5 80.5t70.5 52.5t83 19q39 0 68 -12.5t49 -27.5q23 -18 38 -40h5v70h135v-335q0 -15 10 -25t25 -10q6 0 14 2q4 1 6 3v-125q-7 -3 -16 -5q-17 -5 -39 -5q-36 0 -59 12.5t-37 27.5q-16 18 -24 40h-5
q-16 -22 -40 -40q-21 -15 -53 -27.5t-77 -12.5zM295 115q26 0 49 10t40 27t26.5 41t9.5 52t-9.5 52t-26.5 41t-40 27t-49 10t-49 -10t-40 -27t-26.5 -41t-9.5 -52t9.5 -52t26.5 -41t40 -27t49 -10zM320 705h140l-110 -150h-110z" />
    <glyph glyph-name="epsilontonos" unicode="&#x3ad;" horiz-adv-x="460" 
d="M245 -10q-53 0 -92 12t-65.5 32.5t-39.5 46.5t-13 54q0 35 16 57.5t36 35.5q23 15 53 22q-27 8 -48 23q-18 13 -32.5 34t-14.5 53q0 26 13 51.5t38.5 45t62.5 31.5t86 12q45 0 80 -11t60 -24q28 -16 50 -35l-75 -80q-15 9 -32 17q-14 7 -33.5 12.5t-39.5 5.5
q-34 0 -49.5 -12.5t-15.5 -27.5t15.5 -27.5t49.5 -12.5h60v-110h-60q-42 0 -58.5 -13t-16.5 -31q0 -20 16.5 -33t58.5 -13q30 0 54 8t41 19q19 12 35 28l75 -80q-21 -26 -53 -45q-27 -17 -67.5 -31t-94.5 -14zM255 705h140l-110 -150h-110z" />
    <glyph glyph-name="etatonos" unicode="&#x3ae;" 
d="M65 490h135v-70h5q16 22 37 40q18 15 45 27.5t63 12.5q37 0 70 -14.5t57.5 -41t38.5 -64.5t14 -85v-295h-135v275q0 45 -24 70t-66 25q-45 0 -75 -30.5t-30 -79.5v-260h-135v490zM320 705h140l-110 -150h-110z" />
    <glyph glyph-name="iotatonos" unicode="&#x3af;" horiz-adv-x="310" 
d="M215 -10q-68 0 -109 43t-41 122v335h135v-310q0 -60 55 -60q19 0 32 5q7 2 13 5v-120q-11 -6 -24 -10q-11 -4 -26.5 -7t-34.5 -3zM160 705h140l-110 -150h-110z" />
    <glyph glyph-name="upsilondieresistonos" unicode="&#x3b0;" horiz-adv-x="600" 
d="M165 555q-30 0 -52.5 22.5t-22.5 52.5t22.5 52.5t52.5 22.5t52.5 -22.5t22.5 -52.5t-22.5 -52.5t-52.5 -22.5zM300 705h90l-105 -150h-60zM445 555q-30 0 -52.5 22.5t-22.5 52.5t22.5 52.5t52.5 22.5t52.5 -22.5t22.5 -52.5t-22.5 -52.5t-52.5 -22.5zM300 -10
q-53 0 -96 17t-74 47t-48 71t-17 90v275h135v-275q0 -42 27.5 -68.5t72.5 -26.5t72.5 26.5t27.5 68.5v275h135v-275q0 -49 -17 -90t-48 -71t-74.5 -47t-95.5 -17z" />
    <glyph glyph-name="alpha" unicode="&#x3b1;" horiz-adv-x="625" 
d="M255 -10q-43 0 -83 18.5t-70.5 52.5t-48.5 81t-18 103t18 103t48.5 80.5t70.5 52.5t83 19q39 0 68 -12.5t49 -27.5q23 -18 38 -40h5v70h135v-335q0 -15 10 -25t25 -10q6 0 14 2q4 1 6 3v-125q-7 -3 -16 -5q-17 -5 -39 -5q-36 0 -59 12.5t-37 27.5q-16 18 -24 40h-5
q-16 -22 -40 -40q-21 -15 -53 -27.5t-77 -12.5zM295 115q26 0 49 10t40 27t26.5 41t9.5 52t-9.5 52t-26.5 41t-40 27t-49 10t-49 -10t-40 -27t-26.5 -41t-9.5 -52t9.5 -52t26.5 -41t40 -27t49 -10z" />
    <glyph glyph-name="beta" unicode="&#x3b2;" horiz-adv-x="590" 
d="M70 485q0 51 16 92.5t45 71t69.5 45.5t89.5 16t88.5 -15t67.5 -40.5t43.5 -60.5t15.5 -74q0 -36 -12 -61t-26 -42q-17 -19 -37 -32q35 -15 62 -39q23 -21 43 -54t20 -82q0 -45 -16.5 -83.5t-47 -66.5t-75 -44t-99.5 -16h-112v-210h-135v695zM320 125q49 0 74.5 26
t25.5 64t-27.5 64t-72.5 26h-55v125h20q38 0 61.5 22.5t23.5 52.5t-21 52.5t-59 22.5t-61.5 -25t-23.5 -70v-360h115z" />
    <glyph glyph-name="gamma" unicode="&#x3b3;" horiz-adv-x="515" 
d="M190 -10l-195 500h145l115 -330h5l115 330h145l-195 -500v-200h-135v200z" />
    <glyph glyph-name="delta" unicode="&#x3b4;" horiz-adv-x="585" 
d="M290 -10q-54 0 -101 19t-81 52t-53.5 76.5t-19.5 92.5t17.5 91t48.5 74t73 51.5t91 23.5q-30 30 -61 52.5t-57 37.5q-30 18 -57 30v110h405v-120h-160v-5q41 -26 79 -60.5t67 -77t46.5 -92t17.5 -105.5q0 -53 -19.5 -98.5t-53.5 -79t-81 -53t-101 -19.5zM289 115
q27 0 49 9t38 24.5t25 36.5t9 45q0 49 -33.5 82t-86.5 33t-86.5 -33t-33.5 -82t33.5 -82t85.5 -33z" />
    <glyph glyph-name="epsilon" unicode="&#x3b5;" horiz-adv-x="460" 
d="M245 -10q-53 0 -92 12t-65.5 32.5t-39.5 46.5t-13 54q0 35 16 57.5t36 35.5q23 15 53 22q-27 8 -48 23q-18 13 -32.5 34t-14.5 53q0 26 13 51.5t38.5 45t62.5 31.5t86 12q45 0 80 -11t60 -24q28 -16 50 -35l-75 -80q-15 9 -32 17q-14 7 -33.5 12.5t-39.5 5.5
q-34 0 -49.5 -12.5t-15.5 -27.5t15.5 -27.5t49.5 -12.5h60v-110h-60q-42 0 -58.5 -13t-16.5 -31q0 -20 16.5 -33t58.5 -13q30 0 54 8t41 19q19 12 35 28l75 -80q-21 -26 -53 -45q-27 -17 -67.5 -31t-94.5 -14z" />
    <glyph glyph-name="zeta" unicode="&#x3b6;" horiz-adv-x="505" 
d="M320 -140q0 30 5 54.5t12 42.5q8 21 18 38q-10 -3 -21 -5q-22 -5 -55 -5q-54 0 -97.5 16t-73.5 44.5t-46.5 68t-16.5 86.5q0 37 9 72.5t23.5 68t33.5 61.5t39 53q46 57 105 105h-190v140h405v-110q-81 -56 -143 -116q-27 -26 -52.5 -55t-45.5 -59.5t-32 -62t-12 -62.5
q0 -57 33.5 -88.5t101.5 -31.5q24 0 44.5 3t34.5 7q17 4 31 10l70 -90q-17 -24 -30 -53q-11 -25 -20.5 -59t-9.5 -73h-120v0z" />
    <glyph glyph-name="eta" unicode="&#x3b7;" 
d="M65 490h135v-70h5q16 22 37 40q18 15 45 27.5t63 12.5q37 0 70 -14.5t57.5 -41t38.5 -64.5t14 -85v-295h-135v275q0 45 -24 70t-66 25q-45 0 -75 -30.5t-30 -79.5v-260h-135v490z" />
    <glyph glyph-name="theta" unicode="&#x3b8;" horiz-adv-x="650" 
d="M325 -15q-54 0 -103 23.5t-86 69t-59 114t-22 158.5t22 158.5t59 114t86 69t103 23.5t103 -23.5t86 -69t59 -114t22 -158.5t-22 -158.5t-59 -114t-86 -69t-103 -23.5zM325 110q49 0 85.5 43.5t44.5 141.5h-260q8 -98 44.5 -141.5t85.5 -43.5zM455 405q-8 98 -44.5 141.5
t-85.5 43.5t-85.5 -43.5t-44.5 -141.5h260z" />
    <glyph glyph-name="iota" unicode="&#x3b9;" horiz-adv-x="310" 
d="M215 -10q-68 0 -109 43t-41 122v335h135v-310q0 -60 55 -60q19 0 32 5q7 2 13 5v-120q-11 -6 -24 -10q-11 -4 -26.5 -7t-34.5 -3z" />
    <glyph glyph-name="kappa" unicode="&#x3ba;" horiz-adv-x="540" 
d="M65 490h135v-200l175 200h160l-180 -205l190 -285h-155l-125 190l-65 -75v-115h-135v490z" />
    <glyph glyph-name="lambda" unicode="&#x3bb;" horiz-adv-x="530" 
d="M210 485l-15 34q-14 32 -32.5 46.5t-52.5 14.5q-11 0 -21 -1.5t-18 -3.5q-9 -3 -16 -5v125q12 3 26 7q12 3 28.5 5.5t35.5 2.5q67 0 112.5 -40t77.5 -130l190 -540h-145l-102 300h-5l-123 -300h-145z" />
    <glyph glyph-name="uni03BC" unicode="&#x3bc;" 
d="M65 490h135v-275q0 -45 24 -70t66 -25q45 0 75 30.5t30 79.5v260h135v-490h-135v70h-5q-13 -22 -31 -40q-16 -15 -39 -27.5t-55 -12.5q-29 0 -48 7q-10 4 -17 8v-215h-135v700z" />
    <glyph glyph-name="nu" unicode="&#x3bd;" horiz-adv-x="510" 
d="M-5 490h145l113 -330h4l113 330h145l-185 -490h-150z" />
    <glyph glyph-name="xi" unicode="&#x3be;" horiz-adv-x="510" 
d="M330 -140q0 30 5 54.5t12 42.5q8 21 18 38q-8 -3 -19 -5q-22 -5 -57 -5q-58 0 -104 16.5t-78.5 44.5t-49.5 65.5t-17 78.5q0 54 20.5 90t46.5 57q30 25 68 38v5q-32 10 -58 30q-22 17 -39.5 46t-17.5 74q0 36 16.5 69t47 59t74 41.5t97.5 15.5q45 0 77.5 -8.5t54.5 -19.5
q26 -12 43 -27l-70 -105q-13 8 -28 15q-14 5 -31.5 10t-40.5 5q-49 0 -74.5 -22.5t-25.5 -52.5t26.5 -52.5t83.5 -22.5h70v-130h-75q-64 0 -94.5 -26.5t-30.5 -68.5q0 -21 8 -38t26 -30t46.5 -20t69.5 -7q24 0 44.5 3t34.5 7q17 4 31 10l70 -90q-17 -24 -30 -53
q-11 -25 -20.5 -59t-9.5 -73h-120v0z" />
    <glyph glyph-name="omicron" unicode="&#x3bf;" horiz-adv-x="590" 
d="M295 -10q-54 0 -101.5 20t-83 55t-55.5 81t-20 99q0 52 20 98.5t55.5 81.5t83 55t101.5 20t101.5 -20t83 -55t55.5 -81.5t20 -98.5q0 -53 -20 -99t-55.5 -81t-83 -55t-101.5 -20zM295 115q26 0 49 10t40 27t26.5 41t9.5 52t-9.5 52t-26.5 41t-40 27t-49 10t-49 -10
t-40 -27t-26.5 -41t-9.5 -52t9.5 -52t26.5 -41t40 -27t49 -10z" />
    <glyph glyph-name="pi" unicode="&#x3c0;" 
d="M65 490h465v-490h-135v365h-195v-365h-135v490z" />
    <glyph glyph-name="rho" unicode="&#x3c1;" horiz-adv-x="610" 
d="M60 245q0 52 20 98.5t55 81.5t81 55t99 20q54 0 101.5 -20t83 -55t55.5 -81.5t20 -98.5q0 -53 -20 -99t-55.5 -81t-83 -55t-101.5 -20q-30 0 -52.5 5t-37.5 12q-18 8 -30 18v-235h-135v455zM315 115q26 0 49 10t40 27t26.5 41t9.5 52t-9.5 52t-26.5 41t-40 27t-49 10
t-49 -10t-40 -27t-26.5 -41t-9.5 -52t9.5 -52t26.5 -41t40 -27t49 -10z" />
    <glyph glyph-name="sigma1" unicode="&#x3c2;" horiz-adv-x="515" 
d="M305 -140q0 30 5 54.5t12 41.5q8 20 18 37q-4 -1 -10 -2q-5 -1 -12.5 -1h-17.5q-58 0 -106.5 19.5t-84 53.5t-55 81t-19.5 101q0 52 20.5 98.5t56 81.5t84 55t104.5 20q45 0 80.5 -11t61.5 -24q30 -16 53 -35l-80 -100q-15 12 -33 22q-16 8 -37 15.5t-45 7.5
q-57 0 -93.5 -36.5t-36.5 -93.5q0 -26 9.5 -49.5t28 -41.5t46.5 -28.5t66 -10.5q23 0 40.5 3t29.5 7q14 4 25 10l70 -90q-17 -24 -30 -53q-11 -25 -20.5 -59t-9.5 -73h-120v0z" />
    <glyph glyph-name="sigma" unicode="&#x3c3;" horiz-adv-x="630" 
d="M295 -10q-54 0 -101.5 20t-83 54.5t-55.5 79.5t-20 96t20 96t55.5 79.5t83 54.5t101.5 20h320v-130h-95q9 -16 17 -34q7 -16 12.5 -38t5.5 -48q0 -51 -20 -96t-55.5 -79.5t-83 -54.5t-101.5 -20zM295 115q26 0 49 9.5t40 26.5t26.5 40t9.5 49t-9.5 49t-26.5 40t-40 26.5
t-49 9.5t-49 -9.5t-40 -26.5t-26.5 -40t-9.5 -49t9.5 -49t26.5 -40t40 -26.5t49 -9.5z" />
    <glyph glyph-name="tau" unicode="&#x3c4;" horiz-adv-x="475" 
d="M320 -10q-68 0 -109 43t-41 122v210h-155v125h445v-125h-155v-185q0 -60 55 -60q19 0 32 5q7 2 13 5v-120q-11 -6 -24 -10q-11 -4 -26.5 -7t-34.5 -3z" />
    <glyph glyph-name="upsilon" unicode="&#x3c5;" horiz-adv-x="600" 
d="M300 -10q-53 0 -96 17t-74 47t-48 71t-17 90v275h135v-275q0 -42 27.5 -68.5t72.5 -26.5t72.5 26.5t27.5 68.5v275h135v-275q0 -49 -17 -90t-48 -71t-74.5 -47t-95.5 -17z" />
    <glyph glyph-name="phi" unicode="&#x3c6;" horiz-adv-x="755" 
d="M310 -15q-60 2 -110.5 23t-87 55.5t-57 80t-20.5 96.5q0 45 14.5 83t39 68.5t56 53t65.5 35.5l55 -105q-17 -6 -33 -17t-29 -28t-20.5 -39.5t-7.5 -50.5q0 -60 35.5 -95.5t99.5 -39.5v390h125q62 0 114 -21t90 -56t59.5 -81t21.5 -97t-20.5 -96.5t-57 -80t-87 -55.5
t-110.5 -23v-195h-135v195zM445 105q64 4 99.5 39.5t35.5 95.5t-35.5 95.5t-99.5 39.5v-270z" />
    <glyph glyph-name="chi" unicode="&#x3c7;" horiz-adv-x="510" 
d="M170 250l-165 240h155l93 -150h4l93 150h155l-165 -240l175 -250h-155l-103 160h-4l-103 -160h-155z" />
    <glyph glyph-name="psi" unicode="&#x3c8;" horiz-adv-x="765" 
d="M315 -15q-58 6 -105 27t-80.5 56.5t-51.5 85t-18 111.5v225h135v-230q0 -32 9.5 -58t26 -44.5t38.5 -29.5t46 -13v375h135v-375q24 2 46 13t38.5 29.5t26 44.5t9.5 58v230h135v-225q0 -62 -18 -111.5t-51.5 -85t-80.5 -56.5t-105 -27v-195h-135v195z" />
    <glyph glyph-name="omega" unicode="&#x3c9;" horiz-adv-x="825" 
d="M255 -15q-43 0 -82 18t-68.5 51.5t-47 80.5t-17.5 105q0 51 14.5 92t36.5 73t48.5 54.5t50.5 35.5l60 -105q-13 -11 -25.5 -24t-22.5 -30.5t-16 -40.5t-6 -55q0 -68 23 -96.5t57 -28.5q38 0 61.5 28.5t23.5 96.5v100h135v-100q0 -68 23.5 -96.5t61.5 -28.5q34 0 57 28.5
t23 96.5q0 32 -6 55t-16 40.5t-22.5 30.5t-25.5 24l60 105q24 -13 50.5 -35.5t48.5 -54.5t36.5 -73t14.5 -92q0 -58 -17.5 -105t-47 -80.5t-68.5 -51.5t-82 -18q-45 0 -75.5 14.5t-48.5 32.5q-22 21 -34 48q-13 -27 -34 -48q-18 -18 -48 -32.5t-75 -14.5z" />
    <glyph glyph-name="iotadieresis" unicode="&#x3ca;" horiz-adv-x="310" 
d="M25 555q-30 0 -52.5 22.5t-22.5 52.5t22.5 52.5t52.5 22.5t52.5 -22.5t22.5 -52.5t-22.5 -52.5t-52.5 -22.5zM245 555q-30 0 -52.5 22.5t-22.5 52.5t22.5 52.5t52.5 22.5t52.5 -22.5t22.5 -52.5t-22.5 -52.5t-52.5 -22.5zM215 -10q-68 0 -109 43t-41 122v335h135v-310
q0 -60 55 -60q19 0 32 5q7 2 13 5v-120q-11 -6 -24 -10q-11 -4 -26.5 -7t-34.5 -3z" />
    <glyph glyph-name="upsilondieresis" unicode="&#x3cb;" horiz-adv-x="600" 
d="M300 -10q-53 0 -96 17t-74 47t-48 71t-17 90v275h135v-275q0 -42 27.5 -68.5t72.5 -26.5t72.5 26.5t27.5 68.5v275h135v-275q0 -49 -17 -90t-48 -71t-74.5 -47t-95.5 -17zM190 555q-30 0 -52.5 22.5t-22.5 52.5t22.5 52.5t52.5 22.5t52.5 -22.5t22.5 -52.5t-22.5 -52.5
t-52.5 -22.5zM410 555q-30 0 -52.5 22.5t-22.5 52.5t22.5 52.5t52.5 22.5t52.5 -22.5t22.5 -52.5t-22.5 -52.5t-52.5 -22.5z" />
    <glyph glyph-name="omicrontonos" unicode="&#x3cc;" horiz-adv-x="590" 
d="M295 -10q-54 0 -101.5 20t-83 55t-55.5 81t-20 99q0 52 20 98.5t55.5 81.5t83 55t101.5 20t101.5 -20t83 -55t55.5 -81.5t20 -98.5q0 -53 -20 -99t-55.5 -81t-83 -55t-101.5 -20zM295 115q26 0 49 10t40 27t26.5 41t9.5 52t-9.5 52t-26.5 41t-40 27t-49 10t-49 -10
t-40 -27t-26.5 -41t-9.5 -52t9.5 -52t26.5 -41t40 -27t49 -10zM315 705h140l-110 -150h-110z" />
    <glyph glyph-name="upsilontonos" unicode="&#x3cd;" horiz-adv-x="600" 
d="M300 -10q-53 0 -96 17t-74 47t-48 71t-17 90v275h135v-275q0 -42 27.5 -68.5t72.5 -26.5t72.5 26.5t27.5 68.5v275h135v-275q0 -49 -17 -90t-48 -71t-74.5 -47t-95.5 -17zM320 705h140l-110 -150h-110z" />
    <glyph glyph-name="omegatonos" unicode="&#x3ce;" horiz-adv-x="825" 
d="M255 -15q-43 0 -82 18t-68.5 51.5t-47 80.5t-17.5 105q0 51 14.5 92t36.5 73t48.5 54.5t50.5 35.5l60 -105q-13 -11 -25.5 -24t-22.5 -30.5t-16 -40.5t-6 -55q0 -68 23 -96.5t57 -28.5q38 0 61.5 28.5t23.5 96.5v100h135v-100q0 -68 23.5 -96.5t61.5 -28.5q34 0 57 28.5
t23 96.5q0 32 -6 55t-16 40.5t-22.5 30.5t-25.5 24l60 105q24 -13 50.5 -35.5t48.5 -54.5t36.5 -73t14.5 -92q0 -58 -17.5 -105t-47 -80.5t-68.5 -51.5t-82 -18q-45 0 -75.5 14.5t-48.5 32.5q-22 21 -34 48q-13 -27 -34 -48q-18 -18 -48 -32.5t-75 -14.5zM430 705h140
l-110 -150h-110z" />
    <glyph glyph-name="uni0400" unicode="&#x400;" horiz-adv-x="665" 
d="M90 700h520v-140h-370v-135h290v-135h-290v-150h380v-140h-530v700zM195 935h140l80 -150h-110z" />
    <glyph glyph-name="uni0401" unicode="&#x401;" horiz-adv-x="665" 
d="M90 700h520v-140h-370v-135h290v-135h-290v-150h380v-140h-530v700zM240 780q-30 0 -52.5 22.5t-22.5 52.5t22.5 52.5t52.5 22.5t52.5 -22.5t22.5 -52.5t-22.5 -52.5t-52.5 -22.5zM460 780q-30 0 -52.5 22.5t-22.5 52.5t22.5 52.5t52.5 22.5t52.5 -22.5t22.5 -52.5
t-22.5 -52.5t-52.5 -22.5z" />
    <glyph glyph-name="uni0402" unicode="&#x402;" horiz-adv-x="740" 
d="M440 125q57 0 86 26.5t29 68.5t-26 66t-79 24q-30 0 -55 -8t-43 -17q-21 -11 -37 -25v-260h-150v560h-165v140h475v-140h-160v-155q19 12 44 22q20 8 48.5 15.5t62.5 7.5q54 0 97.5 -16.5t74 -46.5t47 -72.5t16.5 -94.5q0 -53 -17 -96t-48.5 -74t-76 -48t-98.5 -17h-25
v140z" />
    <glyph glyph-name="uni0403" unicode="&#x403;" horiz-adv-x="585" 
d="M90 700h475v-140h-325v-560h-150v700zM350 935h140l-110 -150h-110z" />
    <glyph glyph-name="uni0404" unicode="&#x404;" horiz-adv-x="745" 
d="M425 -15q-81 0 -150.5 29t-120.5 78.5t-80 116t-29 141.5t29 141.5t80 116t120.5 78.5t150.5 29q73 0 128.5 -22t92.5 -48q43 -31 74 -70l-100 -100q-22 28 -51 50q-25 19 -61 34.5t-83 15.5q-43 0 -78.5 -13t-62.5 -34.5t-46 -49.5t-28 -58h305v-135h-305q9 -32 28 -61
t46 -51t62.5 -35t78.5 -13q49 0 86 15.5t63 34.5q30 22 51 50l100 -100q-31 -39 -75 -70q-38 -26 -94 -48t-131 -22z" />
    <glyph glyph-name="uni0405" unicode="&#x405;" horiz-adv-x="585" 
d="M290 -15q-68 0 -118.5 17t-84.5 38q-40 24 -67 55l100 100q18 -21 43 -38q21 -14 51.5 -25.5t70.5 -11.5q60 0 87.5 23t27.5 57q0 30 -26 47.5t-65 31.5t-84 29t-84 39.5t-65 63t-26 99.5q0 41 17.5 78.5t50 65.5t80 44.5t107.5 16.5q58 0 102.5 -15t73.5 -33
q34 -21 59 -47l-100 -100q-16 17 -35 30q-17 11 -41 20.5t-54 9.5q-57 0 -81 -20t-24 -50t26 -47.5t65 -31.5t84 -29t84 -39.5t65 -63t26 -99.5q0 -43 -18 -82t-52.5 -68.5t-83.5 -47t-111 -17.5z" />
    <glyph glyph-name="uni0406" unicode="&#x406;" horiz-adv-x="330" 
d="M90 700h150v-700h-150v700z" />
    <glyph glyph-name="uni0407" unicode="&#x407;" horiz-adv-x="330" 
d="M90 700h150v-700h-150v700zM55 780q-30 0 -52.5 22.5t-22.5 52.5t22.5 52.5t52.5 22.5t52.5 -22.5t22.5 -52.5t-22.5 -52.5t-52.5 -22.5zM275 780q-30 0 -52.5 22.5t-22.5 52.5t22.5 52.5t52.5 22.5t52.5 -22.5t22.5 -52.5t-22.5 -52.5t-52.5 -22.5z" />
    <glyph glyph-name="uni0408" unicode="&#x408;" horiz-adv-x="525" 
d="M195 -15q-55 0 -93.5 14t-63.5 31q-29 19 -48 45l100 100q11 -14 27 -25q13 -10 31.5 -17.5t41.5 -7.5q45 0 72.5 28.5t27.5 81.5v465h150v-465q0 -56 -18 -102t-50 -79t-77.5 -51t-99.5 -18z" />
    <glyph glyph-name="uni0409" unicode="&#x409;" horiz-adv-x="1090" 
d="M85 -15q-19 0 -34.5 2.5t-26.5 5.5q-13 4 -24 9v143q8 -3 16 -5q15 -5 34 -5q26 0 48 12.5t38 49.5t25 104.5t9 177.5v221h490v-230h140q56 0 102 -17.5t79 -49t51 -74.5t18 -94t-18 -94t-51 -74.5t-79 -49t-102 -17.5h-290v560h-190v-80q0 -148 -17.5 -244t-49 -151.5
t-74.5 -77.5t-94 -22zM795 140q45 0 72.5 26.5t27.5 68.5t-27.5 68.5t-72.5 26.5h-135v-190h135z" />
    <glyph glyph-name="uni040A" unicode="&#x40a;" horiz-adv-x="1100" 
d="M90 700h150v-230h280v230h150v-230h140q56 0 102 -17.5t79 -49t51 -74.5t18 -94t-18 -94t-51 -74.5t-79 -49t-102 -17.5h-290v330h-280v-330h-150v700zM805 140q45 0 72.5 26.5t27.5 68.5t-27.5 68.5t-72.5 26.5h-135v-190h135z" />
    <glyph glyph-name="uni040B" unicode="&#x40b;" horiz-adv-x="770" 
d="M165 560h-165v140h475v-140h-160v-155q19 12 44 22q20 8 48.5 15.5t62.5 7.5q52 0 95.5 -17.5t74.5 -49.5t48 -78.5t17 -104.5v-200h-150v200q0 53 -28 81.5t-77 28.5q-30 0 -55 -8t-43 -17q-21 -11 -37 -25v-260h-150v560z" />
    <glyph glyph-name="uni040C" unicode="&#x40c;" horiz-adv-x="700" 
d="M90 700h150v-300l270 300h180l-260 -290l280 -410h-175l-205 300l-90 -95v-205h-150v700zM390 935h140l-110 -150h-110z" />
    <glyph glyph-name="uni040D" unicode="&#x40d;" horiz-adv-x="805" 
d="M90 700h150v-450l340 450h135v-700h-150v450l-340 -450h-135v700zM240 935h140l80 -150h-110z" />
    <glyph glyph-name="uni040E" unicode="&#x40e;" horiz-adv-x="645" 
d="M160 -10q-19 0 -34.5 2t-26.5 5q-13 4 -24 8v135q7 -3 17 -5q18 -5 48 -5q42 0 68.5 22.5t41.5 52.5l10 20l-260 475h175l165 -331l140 331h175l-260 -545q-17 -36 -39 -66t-50.5 -52t-64.5 -34.5t-81 -12.5zM330 780q-36 0 -65.5 11.5t-50.5 32t-32.5 49t-11.5 62.5h100
q0 -26 17 -43t43 -17t43 17t17 43h100q0 -34 -11.5 -62.5t-32.5 -49t-50.5 -32t-65.5 -11.5z" />
    <glyph glyph-name="uni040F" unicode="&#x40f;" horiz-adv-x="780" 
d="M315 0h-225v700h150v-560h300v560h150v-700h-225v-140h-150v140z" />
    <glyph glyph-name="uni0410" unicode="&#x410;" horiz-adv-x="720" 
d="M275 700h170l270 -700h-160l-60 160h-270l-60 -160h-160zM445 295l-83 230h-4l-83 -230h170z" />
    <glyph glyph-name="uni0411" unicode="&#x411;" horiz-adv-x="675" 
d="M90 700h485v-140h-335v-120h155q54 0 98.5 -17t76 -46.5t48.5 -69.5t17 -87t-17 -87t-48.5 -69.5t-76 -46.5t-98.5 -17h-305v700zM390 140q42 0 66 23t24 57t-24 57t-66 23h-150v-160h150z" />
    <glyph glyph-name="uni0412" unicode="&#x412;" horiz-adv-x="690" 
d="M90 700h295q52 0 94 -15t71 -40t44.5 -59t15.5 -71q0 -42 -15 -69.5t-33 -44.5q-21 -20 -47 -31q36 -11 65 -34q24 -20 44.5 -52.5t20.5 -83.5q0 -41 -16.5 -77.5t-47.5 -63.5t-75.5 -43t-100.5 -16h-315v700zM395 130q45 0 70 23.5t25 61.5t-25 61.5t-70 23.5h-155v-170
h155zM375 430q38 0 59 20t21 50t-21 50t-59 20h-135v-140h135z" />
    <glyph glyph-name="uni0413" unicode="&#x413;" horiz-adv-x="585" 
d="M90 700h475v-140h-325v-560h-150v700z" />
    <glyph glyph-name="uni0414" unicode="&#x414;" horiz-adv-x="740" 
d="M0 140h40q30 32 55 80q20 42 37.5 106t17.5 155v219h485v-560h85v-280h-150v140h-420v-140h-150v280zM485 140v420h-185v-80q0 -91 -15.5 -154.5t-34.5 -105.5q-22 -48 -50 -80h285z" />
    <glyph glyph-name="uni0415" unicode="&#x415;" horiz-adv-x="665" 
d="M90 700h520v-140h-370v-135h290v-135h-290v-150h380v-140h-530v700z" />
    <glyph glyph-name="uni0416" unicode="&#x416;" horiz-adv-x="1020" 
d="M270 410l-260 290h180l245 -275v275h150v-275l245 275h180l-260 -290l280 -410h-175l-205 300l-65 -70v-230h-150v230l-65 70l-205 -300h-175z" />
    <glyph glyph-name="uni0417" unicode="&#x417;" horiz-adv-x="615" 
d="M290 -15q-70 0 -121 17.5t-86 39.5q-40 26 -68 58l100 100q18 -22 43 -40q21 -15 51.5 -27.5t70.5 -12.5q71 0 103 25.5t32 59.5t-30.5 59.5t-94.5 25.5h-95v130h85q57 0 83.5 23t26.5 57t-26.5 57t-83.5 23q-32 0 -58 -11t-44 -24q-21 -16 -38 -35l-100 100q26 29 63 52
q32 20 78 36.5t109 16.5q60 0 107.5 -16.5t80 -43.5t50 -62.5t17.5 -72.5q0 -45 -18 -74t-40 -46q-26 -20 -57 -30q39 -12 70 -35q26 -20 48 -53.5t22 -86.5q0 -41 -18.5 -79t-54 -67t-88 -46.5t-119.5 -17.5z" />
    <glyph glyph-name="uni0418" unicode="&#x418;" horiz-adv-x="805" 
d="M90 700h150v-450l340 450h135v-700h-150v450l-340 -450h-135v700z" />
    <glyph glyph-name="uni0419" unicode="&#x419;" horiz-adv-x="805" 
d="M90 700h150v-450l340 450h135v-700h-150v450l-340 -450h-135v700zM400 780q-36 0 -65.5 11.5t-50.5 32t-32.5 49t-11.5 62.5h100q0 -26 17 -43t43 -17t43 17t17 43h100q0 -34 -11.5 -62.5t-32.5 -49t-50.5 -32t-65.5 -11.5z" />
    <glyph glyph-name="uni041A" unicode="&#x41a;" horiz-adv-x="700" 
d="M90 700h150v-300l270 300h180l-260 -290l280 -410h-175l-205 300l-90 -95v-205h-150v700z" />
    <glyph glyph-name="uni041B" unicode="&#x41b;" horiz-adv-x="765" 
d="M85 -15q-19 0 -34.5 2t-26.5 5q-13 4 -24 8v145q8 -3 16 -5q15 -5 34 -5q26 0 48 12.5t38 49.5t25 104.5t9 178.5v220h505v-700h-150v560h-205v-80q0 -148 -17.5 -244t-49 -151.5t-74.5 -77.5t-94 -22z" />
    <glyph glyph-name="uni041C" unicode="&#x41c;" horiz-adv-x="930" 
d="M90 700h135l240 -300l240 300h135v-700h-150v460l-225 -280l-225 280v-460h-150v700z" />
    <glyph glyph-name="uni041D" unicode="&#x41d;" horiz-adv-x="780" 
d="M90 700h150v-275h300v275h150v-700h-150v285h-300v-285h-150v700z" />
    <glyph glyph-name="uni041E" unicode="&#x41e;" horiz-adv-x="850" 
d="M425 -15q-81 0 -150.5 29t-120.5 78.5t-80 116t-29 141.5t29 141.5t80 116t120.5 78.5t150.5 29t150.5 -29t120.5 -78.5t80 -116t29 -141.5t-29 -141.5t-80 -116t-120.5 -78.5t-150.5 -29zM425 125q47 0 88 17.5t71.5 48t48 71.5t17.5 88t-17.5 88t-48 71.5t-71.5 48
t-88 17.5t-88 -17.5t-71.5 -48t-48 -71.5t-17.5 -88t17.5 -88t48 -71.5t71.5 -48t88 -17.5z" />
    <glyph glyph-name="uni041F" unicode="&#x41f;" horiz-adv-x="775" 
d="M90 700h595v-700h-150v560h-295v-560h-150v700z" />
    <glyph glyph-name="uni0420" unicode="&#x420;" horiz-adv-x="680" 
d="M90 700h295q56 0 102 -17.5t79 -49t51 -74.5t18 -94t-18 -94t-51 -74.5t-79 -49t-102 -17.5h-145v-230h-150v700zM380 370q45 0 72.5 26.5t27.5 68.5t-27.5 68.5t-72.5 26.5h-140v-190h140z" />
    <glyph glyph-name="uni0421" unicode="&#x421;" horiz-adv-x="744" 
d="M425 -15q-81 0 -150.5 29t-120.5 78.5t-80 116t-29 141.5t29 141.5t80 116t120.5 78.5t150.5 29q73 0 128.5 -22t92.5 -48q43 -31 74 -70l-100 -100q-22 28 -51 50q-25 19 -61 34.5t-83 15.5t-88 -17.5t-71.5 -48t-48 -71.5t-17.5 -88t17.5 -88t48 -71.5t71.5 -48
t88 -17.5q49 0 86 15.5t63 34.5q30 22 51 50l100 -100q-31 -39 -75 -70q-38 -26 -94 -48t-131 -22z" />
    <glyph glyph-name="uni0422" unicode="&#x422;" horiz-adv-x="590" 
d="M220 560h-200v140h550v-140h-200v-560h-150v560z" />
    <glyph glyph-name="uni0423" unicode="&#x423;" horiz-adv-x="645" 
d="M160 -10q-19 0 -34.5 2t-26.5 5q-13 4 -24 8v135q7 -3 17 -5q18 -5 48 -5q42 0 68.5 22.5t41.5 52.5l10 20l-260 475h175l165 -331l140 331h175l-260 -545q-17 -36 -39 -66t-50.5 -52t-64.5 -34.5t-81 -12.5z" />
    <glyph glyph-name="uni0424" unicode="&#x424;" horiz-adv-x="880" 
d="M365 70q-79 4 -140.5 27t-103.5 61.5t-64 90t-22 111.5t22 111.5t64 90t103.5 61.5t140.5 27v75h150v-75q79 -4 140.5 -27t103.5 -61.5t64 -90t22 -111.5t-22 -111.5t-64 -90t-103.5 -61.5t-140.5 -27v-90h-150v90zM365 520q-83 -4 -129 -48t-46 -112t46 -112t129 -48
v320zM515 200q83 4 129 48t46 112t-46 112t-129 48v-320z" />
    <glyph glyph-name="uni0425" unicode="&#x425;" horiz-adv-x="680" 
d="M240 365l-220 335h175l143 -230h4l143 230h175l-220 -335l240 -365h-175l-163 260h-4l-163 -260h-175z" />
    <glyph glyph-name="uni0426" unicode="&#x426;" horiz-adv-x="780" 
d="M610 0h-520v700h150v-560h285v560h150v-560h85v-280h-150v140z" />
    <glyph glyph-name="uni0427" unicode="&#x427;" horiz-adv-x="735" 
d="M495 255q-19 -11 -45 -20q-22 -8 -52 -14t-68 -6q-56 0 -102 18.5t-79 53.5t-51 86t-18 117v210h150v-210q0 -135 130 -135q30 0 55 7t43 15q21 10 37 23v300h150v-700h-150v255z" />
    <glyph glyph-name="uni0428" unicode="&#x428;" horiz-adv-x="1060" 
d="M90 700h150v-560h215v560h150v-560h215v560h150v-700h-880v700z" />
    <glyph glyph-name="uni0429" unicode="&#x429;" horiz-adv-x="1075" 
d="M905 0h-815v700h150v-560h215v560h150v-560h215v560h150v-560h85v-280h-150v140z" />
    <glyph glyph-name="uni042A" unicode="&#x42a;" horiz-adv-x="735" 
d="M160 560h-160v140h310v-230h135q56 0 102 -17.5t79 -49t51 -74.5t18 -94t-18 -94t-51 -74.5t-79 -49t-102 -17.5h-285v560zM440 140q45 0 72.5 26.5t27.5 68.5t-27.5 68.5t-72.5 26.5h-130v-190h130z" />
    <glyph glyph-name="uni042B" unicode="&#x42b;" horiz-adv-x="945" 
d="M90 700h150v-230h135q56 0 102 -17.5t79 -49t51 -74.5t18 -94t-18 -94t-51 -74.5t-79 -49t-102 -17.5h-285v700zM370 140q45 0 72.5 26.5t27.5 68.5t-27.5 68.5t-72.5 26.5h-130v-190h130zM705 700h150v-700h-150v700z" />
    <glyph glyph-name="uni042C" unicode="&#x42c;" horiz-adv-x="675" 
d="M90 700h150v-230h145q56 0 102 -17.5t79 -49t51 -74.5t18 -94t-18 -94t-51 -74.5t-79 -49t-102 -17.5h-295v700zM380 140q45 0 72.5 26.5t27.5 68.5t-27.5 68.5t-72.5 26.5h-140v-190h140z" />
    <glyph glyph-name="uni042D" unicode="&#x42d;" horiz-adv-x="745" 
d="M320 -15q-75 0 -131 22t-94 48q-44 31 -75 70l100 100q21 -28 51 -50q26 -19 63 -34.5t86 -15.5q43 0 78.5 13t62.5 35t46 51t28 61h-305v135h305q-9 30 -28 58t-46 49.5t-62.5 34.5t-78.5 13q-48 0 -83.5 -15.5t-60.5 -34.5q-29 -22 -51 -50l-100 100q31 39 74 70
q37 26 92 48t129 22q81 0 150.5 -29t120.5 -78.5t80 -116t29 -141.5t-29 -141.5t-80 -116t-120.5 -78.5t-150.5 -29z" />
    <glyph glyph-name="uni042E" unicode="&#x42e;" horiz-adv-x="1090" 
d="M690 -15q-71 0 -132 24.5t-107.5 65.5t-76.5 95.5t-39 114.5h-95v-285h-150v700h150v-275h95q11 58 41.5 110.5t76 92.5t106 63.5t131.5 23.5q75 0 140.5 -28t114.5 -77.5t77 -116t28 -143.5t-28 -143.5t-77 -116t-114.5 -77.5t-140.5 -28zM690 125q41 0 78.5 17t65.5 47
t44.5 71t16.5 90t-16.5 90t-44.5 71t-65.5 47t-78.5 17t-78.5 -17t-65.5 -47t-44.5 -71t-16.5 -90t16.5 -90t44.5 -71t65.5 -47t78.5 -17z" />
    <glyph glyph-name="uni042F" unicode="&#x42f;" horiz-adv-x="700" 
d="M175 260q-34 15 -60 42q-23 23 -41.5 63t-18.5 100q0 52 17 95.5t49 74.5t77.5 48t101.5 17h310v-700h-150v230h-140l-125 -230h-165zM460 370v190h-155q-42 0 -68.5 -26.5t-26.5 -68.5t26.5 -68.5t68.5 -26.5h155z" />
    <glyph glyph-name="uni0430" unicode="&#x430;" horiz-adv-x="540" 
d="M190 -10q-34 0 -61.5 10.5t-47 29.5t-30.5 44.5t-11 55.5q0 60 38.5 102.5t106.5 54.5l155 28q-4 26 -25.5 45.5t-59.5 19.5q-26 0 -46.5 -8.5t-34.5 -19.5q-17 -12 -29 -27l-80 80q21 26 51 47q26 18 63 33t86 15q47 0 85.5 -15t66.5 -41.5t43 -62t15 -76.5v-305h-135
v60h-5q-16 -20 -37 -35q-18 -14 -45.5 -24.5t-62.5 -10.5zM235 100q45 0 75 30.5t30 79.5v10l-110 -20q-26 -5 -40.5 -18t-14.5 -32q0 -23 15 -36.5t45 -13.5z" />
    <glyph glyph-name="uni0431" unicode="&#x431;" 
d="M310 -10q-56 0 -104.5 21t-84 62t-56 100.5t-20.5 136.5q0 88 19.5 153.5t52.5 111t77.5 72.5t95.5 38q32 7 63 17t56 18q29 10 56 20l70 -115q-23 -12 -52 -23q-25 -10 -60 -21.5t-78 -20.5q-36 -8 -61.5 -19.5t-44 -29t-30.5 -41t-19 -55.5q14 18 33 32q17 12 41 22.5
t56 10.5q49 0 92.5 -19.5t76.5 -52.5t52 -77.5t19 -95.5t-19.5 -95.5t-53 -77.5t-79.5 -52.5t-98 -19.5zM310 115q49 0 82 33.5t33 86.5t-33 86.5t-82 33.5t-82 -33.5t-33 -86.5t33 -86.5t82 -33.5z" />
    <glyph glyph-name="uni0432" unicode="&#x432;" horiz-adv-x="535" 
d="M65 490h240q43 0 76 -10.5t55 -29t33 -43t11 -52.5q0 -29 -10.5 -47.5t-22.5 -30.5q-14 -14 -32 -22q24 -8 42 -23q16 -13 29.5 -34t13.5 -53q0 -30 -12 -56.5t-35.5 -46t-58 -31t-79.5 -11.5h-250v490zM310 115q23 0 36.5 13t13.5 32t-13.5 32t-36.5 13h-110v-90h110z
M300 305q19 0 29.5 10t10.5 25t-10.5 25t-29.5 10h-100v-70h100z" />
    <glyph glyph-name="uni0433" unicode="&#x433;" horiz-adv-x="440" 
d="M65 490h360v-125h-225v-365h-135v490z" />
    <glyph glyph-name="uni0434" unicode="&#x434;" horiz-adv-x="570" 
d="M0 125h30q22 20 40 52q15 27 27.5 70t12.5 103v140h375v-365h65v-235h-135v110h-280v-110h-135v235zM350 125v240h-105v-15q0 -60 -11 -103t-24 -70q-16 -32 -35 -52h175z" />
    <glyph glyph-name="uni0435" unicode="&#x435;" horiz-adv-x="570" 
d="M295 -10q-54 0 -101.5 20t-83 55t-55.5 81t-20 99q0 52 20 98.5t55 81.5t81 55t99 20q51 0 95.5 -19.5t77.5 -52.5t52.5 -77.5t19.5 -95.5q0 -14 -1 -24.5t-2 -18.5q-1 -10 -2 -17h-355q11 -34 42.5 -59.5t87.5 -25.5q32 0 56 8t41 19q19 12 33 28l70 -95
q-22 -22 -54 -40q-27 -15 -66 -27.5t-90 -12.5zM395 295q-11 34 -39.5 59.5t-70.5 25.5t-70.5 -25.5t-39.5 -59.5h220z" />
    <glyph glyph-name="uni0436" unicode="&#x436;" horiz-adv-x="785" 
d="M185 285l-180 205h160l160 -185v185h135v-185l160 185h160l-180 -205l190 -285h-155l-125 190l-50 -55v-135h-135v135l-50 55l-125 -190h-155z" />
    <glyph glyph-name="uni0437" unicode="&#x437;" horiz-adv-x="465" 
d="M225 -10q-53 0 -93 14t-67 31q-32 19 -55 45l75 80q17 -16 37 -28q17 -11 40.5 -19t52.5 -8q38 0 54 13t16 32t-16 32t-54 13h-60v110h60q30 0 45 12.5t15 27.5t-15 27.5t-45 12.5q-25 0 -45.5 -6t-36.5 -14q-18 -9 -33 -20l-75 80q21 20 51 37q26 14 63 26t86 12
q47 0 83.5 -12t61 -31.5t37.5 -45t13 -51.5q0 -32 -15 -53t-33 -34q-21 -15 -47 -23q29 -7 52 -22q20 -13 36.5 -35.5t16.5 -57.5q0 -28 -13 -54t-39 -46.5t-64 -32.5t-89 -12z" />
    <glyph glyph-name="uni0438" unicode="&#x438;" 
d="M65 490h135v-280l210 280h120v-490h-135v280l-210 -280h-120v490z" />
    <glyph glyph-name="uni0439" unicode="&#x439;" 
d="M65 490h135v-280l210 280h120v-490h-135v280l-210 -280h-120v490zM300 555q-36 0 -65.5 11.5t-50.5 31.5t-32.5 47.5t-11.5 59.5h100q0 -26 17 -43t43 -17t43 17t17 43h100q0 -32 -11.5 -59.5t-32.5 -47.5t-50.5 -31.5t-65.5 -11.5z" />
    <glyph glyph-name="uni043A" unicode="&#x43a;" horiz-adv-x="540" 
d="M65 490h135v-200l175 200h160l-180 -205l190 -285h-155l-125 190l-65 -75v-115h-135v490z" />
    <glyph glyph-name="uni043B" unicode="&#x43b;" horiz-adv-x="580" 
d="M70 -15q-17 0 -30 2t-22 5q-11 4 -18 8v125q6 -2 12 -3q5 -1 11 -1.5t12 -0.5q19 0 33.5 8t25 32t16 69.5t5.5 120.5v140h400v-490h-135v365h-130v-15q0 -107 -14 -177.5t-38.5 -112t-57.5 -58.5t-70 -17z" />
    <glyph glyph-name="uni043C" unicode="&#x43c;" horiz-adv-x="660" 
d="M65 490h120l145 -185l145 185h120v-490h-135v285l-130 -165l-130 165v-285h-135v490z" />
    <glyph glyph-name="uni043D" unicode="&#x43d;" horiz-adv-x="585" 
d="M65 490h135v-180h185v180h135v-490h-135v185h-185v-185h-135v490z" />
    <glyph glyph-name="uni043E" unicode="&#x43e;" horiz-adv-x="590" 
d="M295 -10q-54 0 -101.5 20t-83 55t-55.5 81t-20 99q0 52 20 98.5t55.5 81.5t83 55t101.5 20t101.5 -20t83 -55t55.5 -81.5t20 -98.5q0 -53 -20 -99t-55.5 -81t-83 -55t-101.5 -20zM295 115q26 0 49 10t40 27t26.5 41t9.5 52t-9.5 52t-26.5 41t-40 27t-49 10t-49 -10
t-40 -27t-26.5 -41t-9.5 -52t9.5 -52t26.5 -41t40 -27t49 -10z" />
    <glyph glyph-name="uni043F" unicode="&#x43f;" horiz-adv-x="585" 
d="M65 490h455v-490h-135v365h-185v-365h-135v490z" />
    <glyph glyph-name="uni0440" unicode="&#x440;" horiz-adv-x="615" 
d="M65 490h135v-70h5q15 22 38 40q20 15 48.5 27.5t68.5 12.5q43 0 83 -19t70.5 -52.5t48.5 -80.5t18 -103t-18 -103t-48.5 -81t-70.5 -52.5t-83 -18.5q-40 0 -68.5 12.5t-48.5 27.5q-23 18 -38 40h-5v-280h-135v700zM320 115q26 0 49 10t40 27t26.5 41t9.5 52t-9.5 52
t-26.5 41t-40 27t-49 10t-49 -10t-40 -27t-26.5 -41t-9.5 -52t9.5 -52t26.5 -41t40 -27t49 -10z" />
    <glyph glyph-name="uni0441" unicode="&#x441;" horiz-adv-x="520" 
d="M295 -10q-54 0 -101.5 20t-83 55t-55.5 81t-20 99q0 52 20 98.5t55.5 81.5t83 55t101.5 20q53 0 91 -15.5t64 -34.5q30 -22 50 -50l-85 -85q-14 17 -32 30q-16 11 -38 20.5t-50 9.5q-26 0 -49 -10t-40 -27t-26.5 -41t-9.5 -52t9.5 -52t26.5 -41t40 -27t49 -10
q28 0 50 9.5t38 20.5q18 13 32 30l85 -85q-20 -28 -50 -50q-26 -19 -64 -34.5t-91 -15.5z" />
    <glyph glyph-name="uni0442" unicode="&#x442;" horiz-adv-x="475" 
d="M170 365h-155v125h445v-125h-155v-365h-135v365z" />
    <glyph glyph-name="uni0443" unicode="&#x443;" horiz-adv-x="510" 
d="M125 -210q-19 0 -35.5 2t-28.5 5q-14 4 -26 8v125q7 -3 16 -5q17 -5 39 -5q34 0 54 17t31 43l10 25l-190 485h145l115 -325h5l110 325h145l-200 -530q-31 -83 -76.5 -126.5t-113.5 -43.5z" />
    <glyph glyph-name="uni0444" unicode="&#x444;" horiz-adv-x="745" 
d="M305 -15q-62 4 -112 24.5t-85 54t-54 78.5t-19 98q0 52 19 97t54 79t85 54.5t112 24.5v205h135v-205q62 -4 112 -24.5t85 -54.5t54 -79t19 -97q0 -53 -19 -98t-54 -78.5t-85 -54t-112 -24.5v-195h-135v195zM305 375q-60 -4 -97.5 -41t-37.5 -94t37.5 -94t97.5 -41v270z
M440 105q60 4 97.5 41t37.5 94t-37.5 94t-97.5 41v-270z" />
    <glyph glyph-name="uni0445" unicode="&#x445;" horiz-adv-x="510" 
d="M170 250l-165 240h155l93 -150h4l93 150h155l-165 -240l175 -250h-155l-103 160h-4l-103 -160h-155z" />
    <glyph glyph-name="uni0446" unicode="&#x446;" 
d="M440 0h-375v490h135v-365h175v365h135v-365h65v-235h-135v110z" />
    <glyph glyph-name="uni0447" unicode="&#x447;" horiz-adv-x="555" 
d="M355 160q-13 -9 -31 -15q-15 -6 -36.5 -10.5t-47.5 -4.5q-41 0 -75 13.5t-58.5 39t-38 61.5t-13.5 81v165h135v-155q0 -38 21 -59t59 -21q20 0 36 3.5t27 8.5q12 5 22 13v210h135v-490h-135v160z" />
    <glyph glyph-name="uni0448" unicode="&#x448;" horiz-adv-x="800" 
d="M65 490h135v-365h135v365h135v-365h135v365h135v-490h-675v490z" />
    <glyph glyph-name="uni0449" unicode="&#x449;" horiz-adv-x="825" 
d="M670 0h-605v490h135v-365h135v365h135v-365h135v365h135v-365h65v-235h-135v110z" />
    <glyph glyph-name="uni044A" unicode="&#x44a;" horiz-adv-x="550" 
d="M115 365h-115v125h250v-150h90q41 0 75 -13t58.5 -36t38 -54t13.5 -67t-13.5 -67t-38 -54t-58.5 -36t-75 -13h-225v365zM330 120q26 0 40.5 13.5t14.5 36.5t-14.5 36.5t-40.5 13.5h-80v-100h80z" />
    <glyph glyph-name="uni044B" unicode="&#x44b;" horiz-adv-x="735" 
d="M65 490h135v-150h90q41 0 75 -13t58.5 -36t38 -54t13.5 -67t-13.5 -67t-38 -54t-58.5 -36t-75 -13h-225v490zM280 120q26 0 40.5 13.5t14.5 36.5t-14.5 36.5t-40.5 13.5h-80v-100h80zM535 490h135v-490h-135v490z" />
    <glyph glyph-name="uni044C" unicode="&#x44c;" horiz-adv-x="510" 
d="M65 490h135v-150h100q41 0 75 -13t58.5 -36t38 -54t13.5 -67t-13.5 -67t-38 -54t-58.5 -36t-75 -13h-235v490zM290 120q26 0 40.5 13.5t14.5 36.5t-14.5 36.5t-40.5 13.5h-90v-100h90z" />
    <glyph glyph-name="uni044D" unicode="&#x44d;" horiz-adv-x="520" 
d="M225 -10q-53 0 -91 15.5t-64 34.5q-30 22 -50 50l80 80q14 -17 32 -30q16 -11 39.5 -20.5t53.5 -9.5q34 0 55.5 12.5t35.5 27.5q15 18 24 40h-185v110h185q-9 22 -24 40q-14 15 -35.5 27.5t-55.5 12.5q-30 0 -53.5 -9.5t-39.5 -20.5q-18 -13 -32 -30l-80 80q20 28 50 50
q26 19 64 34.5t91 15.5q54 0 101.5 -20t83 -55t55.5 -81.5t20 -98.5q0 -53 -20 -99t-55.5 -81t-83 -55t-101.5 -20z" />
    <glyph glyph-name="uni044E" unicode="&#x44e;" horiz-adv-x="810" 
d="M520 -10q-51 0 -92.5 15.5t-73 42.5t-52 62.5t-27.5 74.5h-75v-185h-135v490h135v-180h75q7 37 27.5 71.5t52 61t73 42t92.5 15.5q54 0 101 -19.5t81 -53.5t53.5 -81t19.5 -101t-19.5 -101t-53.5 -81t-81 -53.5t-101 -19.5zM520 115q53 0 86.5 35t33.5 95t-33.5 95
t-86.5 35t-86.5 -35t-33.5 -95t33.5 -95t86.5 -35z" />
    <glyph glyph-name="uni044F" unicode="&#x44f;" horiz-adv-x="525" 
d="M125 175q-25 12 -43 32q-16 17 -29 43.5t-13 64.5q0 36 14.5 67.5t40 55.5t61.5 38t79 14h225v-490h-135v145h-75l-80 -145h-150zM325 260v110h-80q-30 0 -47.5 -16t-17.5 -39t17.5 -39t47.5 -16h80z" />
    <glyph glyph-name="uni0450" unicode="&#x450;" horiz-adv-x="570" 
d="M295 -10q-54 0 -101.5 20t-83 55t-55.5 81t-20 99q0 52 20 98.5t55 81.5t81 55t99 20q51 0 95.5 -19.5t77.5 -52.5t52.5 -77.5t19.5 -95.5q0 -14 -1 -24.5t-2 -18.5q-1 -10 -2 -17h-355q11 -34 42.5 -59.5t87.5 -25.5q32 0 56 8t41 19q19 12 33 28l70 -95
q-22 -22 -54 -40q-27 -15 -66 -27.5t-90 -12.5zM395 295q-11 34 -39.5 59.5t-70.5 25.5t-70.5 -25.5t-39.5 -59.5h220zM125 705h140l80 -150h-110z" />
    <glyph glyph-name="uni0451" unicode="&#x451;" horiz-adv-x="570" 
d="M295 -10q-54 0 -101.5 20t-83 55t-55.5 81t-20 99q0 52 20 98.5t55 81.5t81 55t99 20q51 0 95.5 -19.5t77.5 -52.5t52.5 -77.5t19.5 -95.5q0 -14 -1 -24.5t-2 -18.5q-1 -10 -2 -17h-355q11 -34 42.5 -59.5t87.5 -25.5q32 0 56 8t41 19q19 12 33 28l70 -95
q-22 -22 -54 -40q-27 -15 -66 -27.5t-90 -12.5zM395 295q-11 34 -39.5 59.5t-70.5 25.5t-70.5 -25.5t-39.5 -59.5h220zM175 555q-30 0 -52.5 22.5t-22.5 52.5t22.5 52.5t52.5 22.5t52.5 -22.5t22.5 -52.5t-22.5 -52.5t-52.5 -22.5zM395 555q-30 0 -52.5 22.5t-22.5 52.5
t22.5 52.5t52.5 22.5t52.5 -22.5t22.5 -52.5t-22.5 -52.5t-52.5 -22.5z" />
    <glyph glyph-name="uni0452" unicode="&#x452;" 
d="M310 105q49 0 79.5 32.5t30.5 92.5q0 53 -26.5 81.5t-68.5 28.5q-45 0 -75 -30.5t-30 -79.5v-230h-135v520h-85v125h85v55h135v-55h120v-125h-120v-130h5q16 22 37 40q18 15 45 27.5t63 12.5q37 0 71 -15.5t59 -45t40 -72.5t15 -97q0 -128 -64 -194t-181 -66v125z" />
    <glyph glyph-name="uni0453" unicode="&#x453;" horiz-adv-x="440" 
d="M65 490h360v-125h-225v-365h-135v490zM265 705h140l-110 -150h-110z" />
    <glyph glyph-name="uni0454" unicode="&#x454;" horiz-adv-x="520" 
d="M295 -10q-54 0 -101.5 20t-83 55t-55.5 81t-20 99q0 52 20 98.5t55.5 81.5t83 55t101.5 20q53 0 91 -15.5t64 -34.5q30 -22 50 -50l-80 -80q-15 17 -33 30q-16 11 -39 20.5t-53 9.5q-34 0 -56 -12.5t-35 -27.5q-16 -18 -24 -40h185v-110h-185q8 -22 24 -40
q13 -15 35 -27.5t56 -12.5q30 0 53 9.5t39 20.5q18 13 33 30l80 -80q-20 -28 -50 -50q-26 -19 -64 -34.5t-91 -15.5z" />
    <glyph glyph-name="uni0455" unicode="&#x455;" horiz-adv-x="455" 
d="M225 -10q-51 0 -90 14t-66 31q-32 19 -54 45l80 85q15 -16 35 -28q17 -11 41 -19t54 -8q34 0 47 10t13 25q0 14 -18.5 23.5t-46.5 18.5t-60 21t-60 30t-46.5 45t-18.5 67q0 30 13 57t37.5 48t61 33t83.5 12t82.5 -12t59.5 -26q28 -17 48 -37l-80 -85q-12 11 -29 20
q-14 8 -34.5 14t-46.5 6t-38 -9.5t-12 -20.5q0 -14 18.5 -23.5t46.5 -18.5t60 -21t60 -30t46.5 -45t18.5 -67q0 -32 -13 -60t-39 -49t-64 -33.5t-89 -12.5z" />
    <glyph glyph-name="uni0456" unicode="&#x456;" horiz-adv-x="265" 
d="M65 490h135v-490h-135v490zM132 555q-32 0 -54.5 22.5t-22.5 52.5t23 52.5t55 22.5t54.5 -22.5t22.5 -52.5t-23 -52.5t-55 -22.5z" />
    <glyph glyph-name="uni0457" unicode="&#x457;" horiz-adv-x="275" 
d="M70 490h135v-490h-135v490zM30 555q-30 0 -52.5 22.5t-22.5 52.5t22.5 52.5t52.5 22.5t52.5 -22.5t22.5 -52.5t-22.5 -52.5t-52.5 -22.5zM250 555q-30 0 -52.5 22.5t-22.5 52.5t22.5 52.5t52.5 22.5t52.5 -22.5t22.5 -52.5t-22.5 -52.5t-52.5 -22.5z" />
    <glyph glyph-name="uni0458" unicode="&#x458;" horiz-adv-x="265" 
d="M35 -210q-19 0 -35.5 2t-28.5 5q-14 4 -26 8v125q7 -3 16 -5q17 -5 39 -5q30 0 47.5 18t17.5 52v500h135v-520q0 -87 -45 -133.5t-120 -46.5zM132 555q-32 0 -54.5 22.5t-22.5 52.5t23 52.5t55 22.5t54.5 -22.5t22.5 -52.5t-23 -52.5t-55 -22.5z" />
    <glyph glyph-name="uni0459" unicode="&#x459;" horiz-adv-x="805" 
d="M70 -15q-17 0 -30 2t-22 5q-11 4 -18 8v125q6 -2 12 -3q5 -1 11 -1.5t12 -0.5q19 0 33.5 8t25 32t16 69.5t5.5 120.5v140h385v-150h95q41 0 75 -13t58.5 -36t38 -54t13.5 -67t-13.5 -67t-38 -54t-58.5 -36t-75 -13h-230v365h-115v-15q0 -107 -14 -177.5t-38.5 -112
t-57.5 -58.5t-70 -17zM585 120q26 0 40.5 13.5t14.5 36.5t-14.5 36.5t-40.5 13.5h-85v-100h85z" />
    <glyph glyph-name="uni045A" unicode="&#x45a;" horiz-adv-x="815" 
d="M65 490h135v-160h175v160h135v-160h100q39 0 72 -13t57 -35.5t37.5 -52.5t13.5 -64t-13.5 -64t-37.5 -52.5t-57 -35.5t-72 -13h-235v205h-175v-205h-135v490zM600 120q23 0 36.5 13t13.5 32t-13.5 32t-36.5 13h-90v-90h90z" />
    <glyph glyph-name="uni045B" unicode="&#x45b;" horiz-adv-x="615" 
d="M85 520h-85v125h85v55h135v-55h120v-125h-120v-130h5q16 22 37 40q18 15 45 27.5t63 12.5q37 0 70 -14.5t57.5 -41t38.5 -64.5t14 -85v-265h-135v245q0 45 -24 70t-66 25q-45 0 -75 -30.5t-30 -79.5v-230h-135v520z" />
    <glyph glyph-name="uni045C" unicode="&#x45c;" horiz-adv-x="540" 
d="M65 490h135v-200l175 200h160l-180 -205l190 -285h-155l-125 190l-65 -75v-115h-135v490zM310 705h140l-110 -150h-110z" />
    <glyph glyph-name="uni045D" unicode="&#x45d;" 
d="M65 490h135v-280l210 280h120v-490h-135v280l-210 -280h-120v490zM140 705h140l80 -150h-110z" />
    <glyph glyph-name="uni045E" unicode="&#x45e;" horiz-adv-x="510" 
d="M125 -210q-19 0 -35.5 2t-28.5 5q-14 4 -26 8v125q7 -3 16 -5q17 -5 39 -5q34 0 54 17t31 43l10 25l-190 485h145l115 -325h5l110 325h145l-200 -530q-31 -83 -76.5 -126.5t-113.5 -43.5zM255 555q-36 0 -65.5 11.5t-50.5 31.5t-32.5 47.5t-11.5 59.5h100q0 -26 17 -43
t43 -17t43 17t17 43h100q0 -32 -11.5 -59.5t-32.5 -47.5t-50.5 -31.5t-65.5 -11.5z" />
    <glyph glyph-name="uni045F" unicode="&#x45f;" horiz-adv-x="585" 
d="M225 0h-160v490h135v-365h185v365h135v-490h-160v-110h-135v110z" />
    <glyph glyph-name="uni0462" unicode="&#x462;" horiz-adv-x="720" 
d="M135 530h-135v120h135v50h150v-50h190v-120h-190v-60h145q56 0 102 -17.5t79 -49t51 -74.5t18 -94t-18 -94t-51 -74.5t-79 -49t-102 -17.5h-295v530zM425 140q45 0 72.5 26.5t27.5 68.5t-27.5 68.5t-72.5 26.5h-140v-190h140z" />
    <glyph glyph-name="uni0463" unicode="&#x463;" horiz-adv-x="560" 
d="M110 395h-110v110h110v195h135v-195h145v-110h-145v-55h100q41 0 75 -13t58.5 -36t38 -54t13.5 -67t-13.5 -67t-38 -54t-58.5 -36t-75 -13h-235v395zM335 120q26 0 40.5 13.5t14.5 36.5t-14.5 36.5t-40.5 13.5h-90v-100h90z" />
    <glyph glyph-name="uni046A" unicode="&#x46a;" horiz-adv-x="860" 
d="M50 107q0 65 16 114.5t44.5 86t68 60.5t86.5 37l-200 195v100h730v-100l-200 -195q47 -13 86.5 -37t68 -60.5t44.5 -86t16 -114.5v-107h-150v107q0 89 -40 131.5t-115 46.5v-285h-150v285q-75 -4 -115 -46.5t-40 -131.5v-107h-150v107zM580 580h-300l150 -150z" />
    <glyph glyph-name="uni046B" unicode="&#x46b;" horiz-adv-x="685" 
d="M25 20q0 52 13.5 93t37.5 71t57 50t72 31l-145 140v85h565v-85l-145 -140q39 -11 72 -31t57 -50t37.5 -71t13.5 -93v-20h-135v20q0 68 -33 104.5t-82 40.5v-165h-135v165q-49 -4 -82 -40.5t-33 -104.5v-20h-135v20zM435 380h-185l93 -95z" />
    <glyph glyph-name="uni0472" unicode="&#x472;" horiz-adv-x="850" 
d="M425 -15q-81 0 -150.5 29t-120.5 78.5t-80 116t-29 141.5t29 141.5t80 116t120.5 78.5t150.5 29t150.5 -29t120.5 -78.5t80 -116t29 -141.5t-29 -141.5t-80 -116t-120.5 -78.5t-150.5 -29zM425 125q41 0 77 13.5t64.5 36.5t49 55t29.5 70q-12 -9 -29 -15
q-14 -6 -36 -10.5t-50 -4.5t-55.5 6t-53.5 13.5t-51.5 14t-49.5 6.5q-29 0 -49 -5t-34 -10q-16 -7 -27 -15q11 -34 32 -62.5t49 -49t62 -32t72 -11.5zM530 390q28 0 48.5 4.5t34.5 10.5q16 6 27 15q-11 34 -32 62.5t-49 49t-62.5 32t-71.5 11.5q-41 0 -77 -13.5t-64.5 -36.5
t-49 -55.5t-29.5 -69.5q12 8 29 15q14 5 35.5 10t50.5 5q28 0 55 -6.5t53.5 -14t52 -13.5t49.5 -6z" />
    <glyph glyph-name="uni0473" unicode="&#x473;" horiz-adv-x="590" 
d="M295 -10q-54 0 -101.5 20t-83 55t-55.5 81t-20 99q0 52 20 98.5t55.5 81.5t83 55t101.5 20t101.5 -20t83 -55t55.5 -81.5t20 -98.5q0 -53 -20 -99t-55.5 -81t-83 -55t-101.5 -20zM295 115q35 0 57.5 13t35.5 29q15 18 22 43q-10 -4 -21 -8q-9 -3 -20.5 -5t-23.5 -2
q-15 0 -27 3t-23 7t-23 7t-27 3q-11 0 -22 -2.5t-19 -5.5q-10 -4 -19 -7q7 -21 21 -38q12 -14 33.5 -25.5t55.5 -11.5zM345 285q22 0 41 7q10 4 19 8q-7 20 -21 37q-12 14 -33.5 26t-55.5 12q-36 0 -58 -13.5t-35 -29.5q-15 -18 -22 -42q9 3 20 7q9 3 21 5.5t24 2.5
q15 0 27 -3t23 -7t23 -7t27 -3z" />
    <glyph glyph-name="uni0474" unicode="&#x474;" horiz-adv-x="725" 
d="M15 700h160l183 -515h4l118 360q29 90 72 130t118 40q19 0 35.5 -3t28.5 -7q14 -4 26 -10l-35 -139l-10 4t-11 3.5t-14 1.5q-26 0 -42.5 -15t-27.5 -45l-175 -505h-170z" />
    <glyph glyph-name="uni0475" unicode="&#x475;" horiz-adv-x="540" 
d="M-5 490h145l113 -330h4l63 200q21 68 58.5 104t101.5 36q20 0 36 -3t27 -7q12 -4 22 -10l-35 -115q-4 2 -8 5q-4 2 -9 3.5t-13 1.5q-19 0 -28.5 -8t-16.5 -27l-125 -340h-150z" />
    <glyph glyph-name="uni048A" unicode="&#x48a;" horiz-adv-x="810" 
d="M645 0h-80v450l-340 -450h-135v700h150v-450l340 450h135v-560h105v-20l-105 -260h-110zM400 785q-36 0 -65.5 11.5t-50.5 32t-32.5 49t-11.5 62.5h100q0 -26 17 -43t43 -17t43 17t17 43h100q0 -34 -11.5 -62.5t-32.5 -49t-50.5 -32t-65.5 -11.5z" />
    <glyph glyph-name="uni048B" unicode="&#x48b;" horiz-adv-x="600" 
d="M450 0h-55v280l-210 -280h-120v490h135v-280l210 280h120v-360h80v-20l-90 -220h-100zM305 558q-36 0 -65.5 11.5t-50.5 31.5t-32.5 47.5t-11.5 59.5h100q0 -26 17 -43t43 -17t43 17t17 43h100q0 -32 -11.5 -59.5t-32.5 -47.5t-50.5 -31.5t-65.5 -11.5z" />
    <glyph glyph-name="uni048C" unicode="&#x48c;" horiz-adv-x="720" 
d="M135 530h-135v120h135v50h150v-50h190v-120h-190v-60h145q56 0 102 -17.5t79 -49t51 -74.5t18 -94t-18 -94t-51 -74.5t-79 -49t-102 -17.5h-295v530zM425 140q45 0 72.5 26.5t27.5 68.5t-27.5 68.5t-72.5 26.5h-140v-190h140z" />
    <glyph glyph-name="uni048D" unicode="&#x48d;" horiz-adv-x="560" 
d="M110 395h-110v110h110v195h135v-195h145v-110h-145v-55h100q41 0 75 -13t58.5 -36t38 -54t13.5 -67t-13.5 -67t-38 -54t-58.5 -36t-75 -13h-235v395zM335 120q26 0 40.5 13.5t14.5 36.5t-14.5 36.5t-40.5 13.5h-90v-100h90z" />
    <glyph glyph-name="uni048E" unicode="&#x48e;" horiz-adv-x="680" 
d="M90 700h295q56 0 102 -17.5t79 -49t51 -74.5t18 -94q0 -45 -12.5 -78.5t-27.5 -56.5q-18 -26 -40 -45l50 -75l-100 -70l-65 95q-7 -2 -16 -3q-8 -1 -18 -1.5t-21 -0.5h-145v-230h-150v700zM346 370l-26 40l100 70l45 -65l7 14q3 7 5.5 16t2.5 20q0 42 -27.5 68.5
t-72.5 26.5h-140v-190h106z" />
    <glyph glyph-name="uni048F" unicode="&#x48f;" horiz-adv-x="615" 
d="M65 490h135v-70h5q15 22 38 40q20 15 48.5 27.5t68.5 12.5q43 0 83 -19t70.5 -52.5t48.5 -80.5t18 -103q0 -48 -12 -83t-26 -59q-17 -28 -37 -48l55 -80l-85 -55l-55 80q-6 -3 -15 -5q-17 -5 -45 -5q-40 0 -68.5 12.5t-48.5 27.5q-23 18 -38 40h-5v-280h-135v700z
M340 115l-45 65l85 55l40 -60q7 7 12 18q5 9 9 22t4 30q0 28 -9.5 52t-26.5 41t-40 27t-49 10t-49 -10t-40 -27t-26.5 -41t-9.5 -52t9.5 -52t26.5 -41t40 -27t49 -10h20z" />
    <glyph glyph-name="uni0490" unicode="&#x490;" horiz-adv-x="585" 
d="M90 700h325v130h150v-270h-325v-560h-150v700z" />
    <glyph glyph-name="uni0491" unicode="&#x491;" horiz-adv-x="440" 
d="M65 490h225v100h135v-225h-225v-365h-135v490z" />
    <glyph glyph-name="uni0492" unicode="&#x492;" horiz-adv-x="600" 
d="M105 270h-95v140h95v290h475v-140h-325v-150h180v-140h-180v-270h-150v270z" />
    <glyph glyph-name="uni0493" unicode="&#x493;" horiz-adv-x="455" 
d="M80 165h-70v115h70v210h360v-125h-225v-85h125v-115h-125v-165h-135v165z" />
    <glyph glyph-name="uni0494" unicode="&#x494;" horiz-adv-x="675" 
d="M350 -15q64 0 102 38.5t38 106.5q0 30 -9.5 55t-26.5 42.5t-40 27.5t-49 10q-30 0 -53.5 -7.5t-39.5 -15.5q-18 -10 -32 -22v-220h-150v700h475v-140h-325v-195q17 11 39 20q19 8 45.5 14t60.5 6q58 0 106 -19t82 -54.5t53 -86.5t19 -115q0 -68 -20 -121.5t-58 -91
t-93 -57.5t-124 -20v145z" />
    <glyph glyph-name="uni0495" unicode="&#x495;" horiz-adv-x="535" 
d="M265 -90q49 0 79.5 31.5t30.5 88.5q0 49 -26.5 77t-68.5 28q-19 0 -33.5 -5t-25.5 -10q-12 -7 -21 -15v-105h-135v490h360v-125h-225v-125q13 7 30 12q14 5 33 9t42 4q45 0 83.5 -16.5t66.5 -47t44 -74t16 -97.5q0 -121 -64.5 -185.5t-185.5 -64.5v130z" />
    <glyph glyph-name="uni0496" unicode="&#x496;" horiz-adv-x="1035" 
d="M895 0h-40l-205 300l-65 -70v-230h-150v230l-65 70l-205 -300h-175l280 410l-260 290h180l245 -275v275h150v-275l245 275h180l-260 -290l185 -270h110v-280h-150v140z" />
    <glyph glyph-name="uni0497" unicode="&#x497;" horiz-adv-x="800" 
d="M670 0h-35l-125 190l-50 -55v-135h-135v135l-50 55l-125 -190h-155l190 285l-180 205h160l160 -185v185h135v-185l160 185h160l-180 -205l105 -160h100v-235h-135v110z" />
    <glyph glyph-name="uni0498" unicode="&#x498;" horiz-adv-x="615" 
d="M215 -10q-51 9 -88.5 27.5t-62.5 36.5q-29 21 -49 46l100 100q18 -22 43 -40q21 -15 51.5 -27.5t70.5 -12.5q71 0 103 25.5t32 59.5t-30.5 59.5t-94.5 25.5h-95v130h85q57 0 83.5 23t26.5 57t-26.5 57t-83.5 23q-32 0 -58 -11t-44 -24q-21 -16 -38 -35l-100 100
q26 29 63 52q32 20 78 36.5t109 16.5q60 0 107.5 -16.5t80 -43.5t50 -62.5t17.5 -72.5q0 -45 -18 -74t-40 -46q-26 -20 -57 -30q39 -12 70 -35q26 -20 48 -53.5t22 -86.5q0 -38 -15 -71.5t-42.5 -61t-65 -46.5t-82.5 -26v-130h-150v130z" />
    <glyph glyph-name="uni0499" unicode="&#x499;" horiz-adv-x="465" 
d="M160 -5q-36 8 -63.5 22t-47.5 28q-23 17 -39 35l75 80q17 -16 37 -28q17 -11 40.5 -19t52.5 -8q38 0 54 13t16 32t-16 32t-54 13h-60v110h60q30 0 45 12.5t15 27.5t-15 27.5t-45 12.5q-25 0 -45.5 -6t-36.5 -14q-18 -9 -33 -20l-75 80q21 20 51 37q26 14 63 26t86 12
q47 0 83.5 -12t61 -31.5t37.5 -45t13 -51.5q0 -32 -15 -53t-33 -34q-21 -15 -47 -23q29 -7 52 -22q20 -13 36.5 -35.5t16.5 -57.5q0 -53 -35.5 -89t-99.5 -51v-105h-135v105z" />
    <glyph glyph-name="uni049A" unicode="&#x49a;" horiz-adv-x="710" 
d="M570 0h-35l-205 300l-90 -95v-205h-150v700h150v-300l270 300h180l-260 -290l185 -270h105v-280h-150v140z" />
    <glyph glyph-name="uni049B" unicode="&#x49b;" horiz-adv-x="550" 
d="M420 0h-30l-125 190l-65 -75v-115h-135v490h135v-200l175 200h160l-180 -205l105 -160h95v-235h-135v110z" />
    <glyph glyph-name="uni049C" unicode="&#x49c;" horiz-adv-x="725" 
d="M90 700h150v-275h30v115h110v-115h5l175 275h165l-215 -340l235 -360h-165l-190 290h-10v-120h-110v120h-30v-290h-150v700z" />
    <glyph glyph-name="uni049D" unicode="&#x49d;" horiz-adv-x="585" 
d="M65 490h135v-185h25v95h90v-95h5l110 185h150l-149 -245l164 -245h-150l-120 185h-10v-95h-90v95h-25v-185h-135v490z" />
    <glyph glyph-name="uni049E" unicode="&#x49e;" horiz-adv-x="720" 
d="M110 550h-110v100h110v50h150v-50h105v-100h-105v-150l270 300h180l-260 -290l280 -410h-175l-205 300l-90 -95v-205h-150v550z" />
    <glyph glyph-name="uni049F" unicode="&#x49f;" horiz-adv-x="560" 
d="M85 520h-85v120h85v60h135v-60h115v-120h-115v-230l175 200h160l-180 -205l190 -285h-155l-125 190l-65 -75v-115h-135v520z" />
    <glyph glyph-name="uni04A0" unicode="&#x4a0;" horiz-adv-x="775" 
d="M165 560h-165v140h315v-300l270 300h180l-260 -290l280 -410h-175l-205 300l-90 -95v-205h-150v560z" />
    <glyph glyph-name="uni04A1" unicode="&#x4a1;" horiz-adv-x="575" 
d="M100 360h-100v130h235v-200l175 200h160l-180 -205l190 -285h-155l-125 190l-65 -75v-115h-135v360z" />
    <glyph glyph-name="uni04A2" unicode="&#x4a2;" horiz-adv-x="785" 
d="M625 0h-85v285h-300v-285h-150v700h150v-275h300v275h150v-560h85v-280h-150v140z" />
    <glyph glyph-name="uni04A3" unicode="&#x4a3;" 
d="M450 0h-65v185h-185v-185h-135v490h135v-180h185v180h135v-365h65v-235h-135v110z" />
    <glyph glyph-name="uni04A4" unicode="&#x4a4;" horiz-adv-x="985" 
d="M90 700h150v-275h280v275h445v-140h-295v-560h-150v285h-280v-285h-150v700z" />
    <glyph glyph-name="uni04A5" unicode="&#x4a5;" horiz-adv-x="740" 
d="M65 490h135v-180h175v180h350v-125h-215v-365h-135v185h-175v-185h-135v490z" />
    <glyph glyph-name="uni04A6" unicode="&#x4a6;" horiz-adv-x="1110" 
d="M785 -15q64 0 102 38.5t38 106.5q0 30 -9.5 55t-26.5 42.5t-40 27.5t-49 10q-30 0 -53.5 -7.5t-39.5 -15.5q-18 -10 -32 -22v-220h-150v560h-285v-560h-150v700h585v-335q17 11 39 20q19 8 45.5 14t60.5 6q58 0 106 -19t82 -54.5t53 -86.5t19 -115q0 -68 -20 -121.5
t-58 -91t-93 -57.5t-124 -20v145z" />
    <glyph glyph-name="uni04A7" unicode="&#x4a7;" horiz-adv-x="855" 
d="M585 -90q49 0 79.5 31.5t30.5 88.5q0 49 -26.5 77t-68.5 28q-19 0 -33.5 -5t-25.5 -10q-12 -7 -21 -15v-105h-135v365h-185v-365h-135v490h455v-250q13 7 30 12q14 5 33 9t42 4q45 0 83.5 -16.5t66.5 -47t44 -74t16 -97.5q0 -121 -64.5 -185.5t-185.5 -64.5v130z" />
    <glyph glyph-name="uni04A8" unicode="&#x4a8;" horiz-adv-x="910" 
d="M415 -15q-79 0 -146 27.5t-115.5 77t-76 117t-27.5 148.5q0 77 24.5 140.5t68 110.5t101.5 75t126 34v-125q-32 -4 -62.5 -21.5t-54.5 -47.5t-38.5 -72t-14.5 -94q0 -53 18.5 -96t50 -75t73 -51t88.5 -23l5 5q-31 28 -55 67q-21 33 -38 82.5t-17 115.5q0 67 18.5 120
t52.5 90t81 56t103 19q52 0 98.5 -19t81.5 -56t55 -90t20 -120q0 -66 -18 -115.5t-40 -82.5q-26 -39 -57 -67l5 -5q26 2 49.5 10.5t41.5 18.5q21 11 39 26l75 -115q-21 -19 -50 -33q-25 -12 -62.5 -22t-87.5 -10q-38 0 -66 5t-47 12q-22 8 -37 18q-21 -10 -47 -18
q-22 -7 -52.5 -12t-65.5 -5zM580 155q29 18 52 49q20 26 36.5 69t16.5 107q0 37 -8.5 65.5t-23 47t-33.5 28t-40 9.5t-40 -9.5t-33.5 -28t-23 -47t-8.5 -65.5q0 -64 16 -107t36 -69q23 -31 53 -49z" />
    <glyph glyph-name="uni04A9" unicode="&#x4a9;" horiz-adv-x="710" 
d="M310 -15q-60 0 -110.5 20.5t-87 56t-57 84t-20.5 104.5q0 49 18.5 92t49 76t71.5 53.5t86 25.5v-107q-15 -4 -31 -15t-29 -29t-21.5 -42t-8.5 -54q0 -68 36.5 -108.5t93.5 -51.5l5 5q-16 16 -28 41q-11 20 -19 51t-8 73q0 45 14 82t39.5 63t60.5 40.5t76 14.5t76 -14.5
t60.5 -40.5t39.5 -63t14 -82q0 -42 -8.5 -73t-19.5 -51q-12 -25 -27 -41l5 -5q24 4 42.5 12.5t31.5 16.5q15 10 26 21l70 -85q-17 -20 -42 -35q-21 -14 -53 -24.5t-75 -10.5q-34 0 -60 4.5t-44 10.5q-21 6 -36 15q-16 -9 -35 -15q-17 -6 -41 -10.5t-54 -4.5zM440 130
q15 15 27 35q11 17 19.5 41t8.5 54q0 38 -16 56.5t-39 18.5t-39 -18.5t-16 -56.5q0 -30 8 -54t19 -41q12 -20 28 -35z" />
    <glyph glyph-name="uni04AA" unicode="&#x4aa;" horiz-adv-x="745" 
d="M335 -5q-64 15 -117 48.5t-91.5 80.5t-60 104.5t-21.5 121.5q0 75 29 141.5t80 116t120.5 78.5t150.5 29q73 0 128.5 -22t92.5 -48q43 -31 74 -70l-100 -100q-22 28 -51 50q-25 19 -61 34.5t-83 15.5t-88 -17.5t-71.5 -48t-48 -71.5t-17.5 -88t17.5 -88t48 -71.5
t71.5 -48t88 -17.5q49 0 86 15.5t63 34.5q30 22 51 50l100 -100q-25 -31 -60 -58q-30 -23 -75 -45.5t-105 -31.5v-130h-150v135z" />
    <glyph glyph-name="uni04AB" unicode="&#x4ab;" horiz-adv-x="520" 
d="M220 0q-36 9 -69 30.5t-59 53t-41.5 72t-15.5 89.5q0 52 20 98.5t55.5 81.5t83 55t101.5 20q53 0 91 -15.5t64 -34.5q30 -22 50 -50l-85 -85q-14 17 -32 30q-16 11 -38 20.5t-50 9.5q-26 0 -49 -10t-40 -27t-26.5 -41t-9.5 -52t9.5 -52t26.5 -41t40 -27t49 -10
q28 0 50 9.5t38 20.5q18 13 32 30l85 -85q-16 -22 -37 -40q-18 -16 -45.5 -31.5t-62.5 -23.5v-105h-135v110z" />
    <glyph glyph-name="uni04AC" unicode="&#x4ac;" horiz-adv-x="590" 
d="M305 0h-85v560h-200v140h550v-140h-200v-420h85v-280h-150v140z" />
    <glyph glyph-name="uni04AD" unicode="&#x4ad;" horiz-adv-x="475" 
d="M235 0h-65v365h-155v125h445v-125h-155v-240h65v-235h-135v110z" />
    <glyph glyph-name="uni04AE" unicode="&#x4ae;" horiz-adv-x="670" 
d="M260 250l-265 450h175l163 -300h4l163 300h175l-265 -450v-250h-150v250z" />
    <glyph glyph-name="uni04AF" unicode="&#x4af;" horiz-adv-x="515" 
d="M190 -10l-195 500h145l115 -330h5l115 330h145l-195 -500v-200h-135v200z" />
    <glyph glyph-name="uni04B0" unicode="&#x4b0;" horiz-adv-x="670" 
d="M260 160h-155v120h140l-250 420h175l163 -300h4l163 300h175l-250 -420h140v-120h-155v-160h-150v160z" />
    <glyph glyph-name="uni04B1" unicode="&#x4b1;" horiz-adv-x="515" 
d="M190 -110h-110v110h105l-190 490h145l115 -330h5l115 330h145l-190 -490h105v-110h-110v-100h-135v100z" />
    <glyph glyph-name="uni04B2" unicode="&#x4b2;" horiz-adv-x="680" 
d="M540 0h-35l-163 260h-4l-163 -260h-175l240 365l-220 335h175l143 -230h4l143 230h175l-220 -335l145 -225h105v-280h-150v140z" />
    <glyph glyph-name="uni04B3" unicode="&#x4b3;" horiz-adv-x="520" 
d="M390 0h-30l-103 160h-4l-103 -160h-155l175 250l-165 240h155l93 -150h4l93 150h155l-165 -240l90 -125h95v-235h-135v110z" />
    <glyph glyph-name="uni04B4" unicode="&#x4b4;" horiz-adv-x="910" 
d="M740 0h-520v560h-200v140h520v-140h-170v-420h285v560h150v-560h85v-280h-150v140z" />
    <glyph glyph-name="uni04B5" unicode="&#x4b5;" horiz-adv-x="710" 
d="M555 0h-385v365h-155v125h395v-125h-105v-240h185v365h135v-365h65v-235h-135v110z" />
    <glyph glyph-name="uni04B6" unicode="&#x4b6;" horiz-adv-x="740" 
d="M580 0h-85v255q-19 -11 -45 -20q-22 -8 -52 -14t-68 -6q-56 0 -102 18.5t-79 53.5t-51 86t-18 117v210h150v-210q0 -135 130 -135q30 0 55 7t43 15q21 10 37 23v300h150v-560h85v-280h-150v140z" />
    <glyph glyph-name="uni04B7" unicode="&#x4b7;" horiz-adv-x="575" 
d="M420 0h-65v160q-13 -9 -31 -15q-15 -6 -36.5 -10.5t-47.5 -4.5q-41 0 -75 13.5t-58.5 39t-38 61.5t-13.5 81v165h135v-155q0 -38 21 -59t59 -21q20 0 36 3.5t27 8.5q12 5 22 13v210h135v-365h65v-235h-135v110z" />
    <glyph glyph-name="uni04B8" unicode="&#x4b8;" horiz-adv-x="735" 
d="M495 255q-10 -6 -21 -11q-10 -5 -23.5 -10.5t-30.5 -9.5v-114h-120v106l-16.5 1.5t-40.5 10t-53 25.5t-53 47.5t-40.5 77t-16.5 112.5v210h150v-210q0 -40 10.5 -64t24.5 -38q15 -16 35 -23v115h120v-115q17 4 30.5 9.5t23.5 11.5q11 6 21 14v300h150v-700h-150v255z" />
    <glyph glyph-name="uni04B9" unicode="&#x4b9;" horiz-adv-x="555" 
d="M355 160l-10 -6q-5 -2 -11 -4.5t-14 -4.5v-85h-90v70q-79 4 -127 54t-48 141v165h135v-155q0 -23 6 -37.5t14 -22.5q9 -10 20 -15v70h90v-70q8 2 14 5.5t11 6.5l10 8v210h135v-490h-135v160z" />
    <glyph glyph-name="uni04BA" unicode="&#x4ba;" horiz-adv-x="725" 
d="M90 700h150v-255q19 11 45 20q22 8 52 14t68 6q56 0 102 -18.5t79 -53.5t51 -86t18 -117v-210h-150v210q0 135 -130 135q-31 0 -55.5 -7.5t-42.5 -15.5q-21 -10 -37 -22v-300h-150v700z" />
    <glyph glyph-name="uni04BB" unicode="&#x4bb;" horiz-adv-x="600" 
d="M70 700h135v-280h5q16 22 37 40q18 15 45 27.5t63 12.5q37 0 70 -14.5t57.5 -41t38.5 -64.5t14 -85v-295h-135v275q0 45 -24 70t-66 25q-45 0 -75 -30.5t-30 -79.5v-260h-135v700z" />
    <glyph glyph-name="uni04BC" unicode="&#x4bc;" horiz-adv-x="925" 
d="M540 -15q-73 0 -136.5 24t-111 66t-77 99.5t-35.5 125.5h-10q-43 0 -76.5 11.5t-56.5 31.5t-35 47.5t-12 59.5q0 28 5 45q2 9 5 15h115q-2 -7 -3 -13t-1.5 -12.5t-0.5 -14.5q0 -23 15 -36.5t45 -13.5h10q11 66 42.5 120t78 93t105 60.5t124.5 21.5q75 0 140 -27.5
t112.5 -76.5t75 -115.5t27.5 -145.5q0 -11 -0.5 -22t-1.5 -19q-1 -10 -1 -19h-547q7 -34 24.5 -64t44 -52.5t61 -35.5t75.5 -13q47 0 83 12.5t61 27.5q29 18 51 40l90 -105q-32 -32 -75 -58q-37 -22 -89.5 -39.5t-120.5 -17.5zM720 420q-6 30 -22 58t-41 49.5t-57.5 34.5
t-69.5 13q-38 0 -70 -13t-57 -34.5t-41 -49.5t-22 -58h380z" />
    <glyph glyph-name="uni04BD" unicode="&#x4bd;" horiz-adv-x="665" 
d="M390 -10q-49 0 -92 16t-77 44t-56.5 66.5t-29.5 83.5q-68 0 -101.5 31t-33.5 84q0 8 0.5 14.5t1.5 11.5t3 9h85v-20q0 -19 9.5 -27t35.5 -8q9 43 32 80.5t55.5 65t74 43.5t88.5 16q51 0 95.5 -19.5t77.5 -52.5t52.5 -77.5t19.5 -95.5q0 -14 -1 -24.5t-2 -18.5
q-1 -10 -2 -17h-355q11 -34 42.5 -59.5t87.5 -25.5q32 0 56 8t41 19q19 12 33 28l70 -95q-22 -22 -54 -40q-27 -15 -66 -27.5t-90 -12.5zM490 295q-11 34 -39.5 59.5t-70.5 25.5t-70.5 -25.5t-39.5 -59.5h220z" />
    <glyph glyph-name="uni04BE" unicode="&#x4be;" horiz-adv-x="925" 
d="M455 -5q-60 13 -108.5 41.5t-83.5 68t-56 89.5t-27 106h-10q-43 0 -76.5 11.5t-56.5 31.5t-35 47.5t-12 59.5q0 28 5 45q2 9 5 15h115q-2 -7 -3 -13t-1.5 -12.5t-0.5 -14.5q0 -23 15 -36.5t45 -13.5h10q11 66 42.5 120t78 93t105 60.5t124.5 21.5q75 0 140 -27.5
t112.5 -76.5t75 -115.5t27.5 -145.5q0 -11 -0.5 -22t-1.5 -19q-1 -10 -1 -19h-547q7 -34 24.5 -64t44 -52.5t61 -35.5t75.5 -13q47 0 83 12.5t61 27.5q29 18 51 40l90 -105q-26 -26 -59 -48q-29 -19 -69.5 -36.5t-91.5 -25.5v-130h-150v135zM720 420q-6 30 -22 58t-41 49.5
t-57.5 34.5t-69.5 13q-38 0 -70 -13t-57 -34.5t-41 -49.5t-22 -58h380z" />
    <glyph glyph-name="uni04BF" unicode="&#x4bf;" horiz-adv-x="665" 
d="M315 0q-36 9 -66.5 28t-53.5 45.5t-38.5 58.5t-21.5 68q-68 0 -101.5 31t-33.5 84q0 8 0.5 14.5t1.5 11.5t3 9h85v-20q0 -19 9.5 -27t35.5 -8q9 43 32 80.5t55.5 65t74 43.5t88.5 16q51 0 95.5 -19.5t77.5 -52.5t52.5 -77.5t19.5 -95.5q0 -14 -1 -24.5t-2 -18.5
q-1 -10 -2 -17h-355q11 -34 42.5 -59.5t87.5 -25.5q32 0 56 8t41 19q19 12 33 28l70 -95q-16 -16 -39 -30q-20 -12 -48 -24.5t-63 -20.5v-105h-135v110zM490 295q-11 34 -39.5 59.5t-70.5 25.5t-70.5 -25.5t-39.5 -59.5h220z" />
    <glyph glyph-name="uni04C0" unicode="&#x4c0;" horiz-adv-x="330" 
d="M90 700h150v-700h-150v700z" />
    <glyph glyph-name="uni04C1" unicode="&#x4c1;" horiz-adv-x="1020" 
d="M270 410l-260 290h180l245 -275v275h150v-275l245 275h180l-260 -290l280 -410h-175l-205 300l-65 -70v-230h-150v230l-65 70l-205 -300h-175zM510 785q-36 0 -65.5 11.5t-50.5 32t-32.5 49t-11.5 62.5h100q0 -26 17 -43t43 -17t43 17t17 43h100q0 -34 -11.5 -62.5
t-32.5 -49t-50.5 -32t-65.5 -11.5z" />
    <glyph glyph-name="uni04C2" unicode="&#x4c2;" horiz-adv-x="785" 
d="M185 285l-180 205h160l160 -185v185h135v-185l160 185h160l-180 -205l190 -285h-155l-125 190l-50 -55v-135h-135v135l-50 55l-125 -190h-155zM395 555q-36 0 -65.5 11.5t-50.5 31.5t-32.5 47.5t-11.5 59.5h100q0 -26 17 -43t43 -17t43 17t17 43h100q0 -32 -11.5 -59.5
t-32.5 -47.5t-50.5 -31.5t-65.5 -11.5z" />
    <glyph glyph-name="uni04C3" unicode="&#x4c3;" horiz-adv-x="730" 
d="M385 -75q68 0 111.5 46t43.5 129t-40 126.5t-100 43.5q-42 0 -71.5 -12.5t-49.5 -27.5q-23 -18 -39 -40v-190h-150v700h150v-300l270 300h180l-265 -295q60 0 110.5 -21t87 -60.5t57 -96t20.5 -127.5t-23 -130t-65 -101t-100 -65.5t-127 -23.5v145z" />
    <glyph glyph-name="uni04C4" unicode="&#x4c4;" horiz-adv-x="570" 
d="M295 -90q49 0 79.5 32.5t30.5 92.5t-30.5 92.5t-79.5 32.5q-23 0 -40.5 -6t-29.5 -14q-14 -9 -25 -20v-120h-135v490h135v-200l175 200h160l-190 -215q90 -11 145 -71t55 -169q0 -121 -66.5 -188t-183.5 -67v130z" />
    <glyph glyph-name="uni04C5" unicode="&#x4c5;" horiz-adv-x="770" 
d="M605 0h-80v560h-205v-80q0 -148 -17.5 -244t-49 -151.5t-74.5 -77.5t-94 -22q-19 0 -34.5 2t-26.5 5q-13 4 -24 8v145q8 -3 16 -5q15 -5 34 -5q26 0 48 12.5t38 49.5t25 104.5t9 178.5v220h505v-560h105v-20l-105 -260h-110z" />
    <glyph glyph-name="uni04C6" unicode="&#x4c6;" horiz-adv-x="585" 
d="M435 0h-55v365h-130v-15q0 -107 -14 -177.5t-38.5 -112t-57.5 -58.5t-70 -17q-17 0 -30 2t-22 5q-11 4 -18 8v125q6 -2 12 -3q5 -1 11 -1.5t12 -0.5q19 0 33.5 8t25 32t16 69.5t5.5 120.5v140h400v-360h80v-20l-90 -220h-100z" />
    <glyph glyph-name="uni04C7" unicode="&#x4c7;" horiz-adv-x="780" 
d="M525 -220q-23 0 -41.5 2t-31.5 5q-16 4 -27 8v135q8 -3 16 -5q15 -5 34 -5q30 0 47.5 18t17.5 52v295h-300v-285h-150v700h150v-275h300v275h150v-740q0 -87 -44.5 -133.5t-120.5 -46.5z" />
    <glyph glyph-name="uni04C8" unicode="&#x4c8;" horiz-adv-x="585" 
d="M365 -220q-17 0 -31.5 2t-25.5 5q-12 4 -23 8v125q6 -3 13 -5q13 -5 32 -5q55 0 55 60v215h-185v-185h-135v490h135v-180h185v180h135v-540q0 -83 -41.5 -126.5t-113.5 -43.5z" />
    <glyph glyph-name="uni04C9" unicode="&#x4c9;" horiz-adv-x="785" 
d="M620 0h-80v285h-300v-285h-150v700h150v-275h300v275h150v-560h105v-20l-105 -260h-110z" />
    <glyph glyph-name="uni04CA" unicode="&#x4ca;" horiz-adv-x="590" 
d="M440 0h-55v185h-185v-185h-135v490h135v-180h185v180h135v-360h80v-20l-90 -220h-100z" />
    <glyph glyph-name="uni04CB" unicode="&#x4cb;" horiz-adv-x="735" 
d="M410 140h85v115q-19 -11 -45 -20q-22 -8 -52 -14t-68 -6q-56 0 -102 18.5t-79 53.5t-51 86t-18 117v210h150v-210q0 -135 130 -135q30 0 55 7t43 15q21 10 37 23v300h150v-700h-85v-140h-150v280z" />
    <glyph glyph-name="uni04CC" unicode="&#x4cc;" horiz-adv-x="555" 
d="M290 80h65v80q-13 -9 -31 -15q-15 -6 -36.5 -10.5t-47.5 -4.5q-41 0 -75 13.5t-58.5 39t-38 61.5t-13.5 81v165h135v-155q0 -38 21 -59t59 -21q20 0 36 3.5t27 8.5q12 5 22 13v210h135v-490h-65v-110h-135v190z" />
    <glyph glyph-name="uni04CD" unicode="&#x4cd;" horiz-adv-x="935" 
d="M770 0h-80v460l-225 -280l-225 280v-460h-150v700h135l240 -300l240 300h135v-560h105v-20l-105 -260h-110z" />
    <glyph glyph-name="uni04CE" unicode="&#x4ce;" horiz-adv-x="665" 
d="M515 0h-55v285l-130 -165l-130 165v-285h-135v490h120l145 -185l145 185h120v-360h80v-20l-90 -220h-100z" />
    <glyph glyph-name="uni04CF" unicode="&#x4cf;" horiz-adv-x="275" 
d="M70 700h135v-700h-135v700z" />
    <glyph glyph-name="uni04D0" unicode="&#x4d0;" horiz-adv-x="720" 
d="M275 700h170l270 -700h-160l-60 160h-270l-60 -160h-160zM445 295l-83 230h-4l-83 -230h170zM360 785q-36 0 -65.5 11.5t-50.5 32t-32.5 49t-11.5 62.5h100q0 -26 17 -43t43 -17t43 17t17 43h100q0 -34 -11.5 -62.5t-32.5 -49t-50.5 -32t-65.5 -11.5z" />
    <glyph glyph-name="uni04D1" unicode="&#x4d1;" horiz-adv-x="540" 
d="M190 -10q-34 0 -61.5 10.5t-47 29.5t-30.5 44.5t-11 55.5q0 60 38.5 102.5t106.5 54.5l155 28q-4 26 -25.5 45.5t-59.5 19.5q-26 0 -46.5 -8.5t-34.5 -19.5q-17 -12 -29 -27l-80 80q21 26 51 47q26 18 63 33t86 15q47 0 85.5 -15t66.5 -41.5t43 -62t15 -76.5v-305h-135
v60h-5q-16 -20 -37 -35q-18 -14 -45.5 -24.5t-62.5 -10.5zM235 100q45 0 75 30.5t30 79.5v10l-110 -20q-26 -5 -40.5 -18t-14.5 -32q0 -23 15 -36.5t45 -13.5zM280 555q-36 0 -65.5 11.5t-50.5 31.5t-32.5 47.5t-11.5 59.5h100q0 -26 17 -43t43 -17t43 17t17 43h100
q0 -32 -11.5 -59.5t-32.5 -47.5t-50.5 -31.5t-65.5 -11.5z" />
    <glyph glyph-name="uni04D2" unicode="&#x4d2;" horiz-adv-x="720" 
d="M275 700h170l270 -700h-160l-60 160h-270l-60 -160h-160zM445 295l-83 230h-4l-83 -230h170zM250 780q-30 0 -52.5 22.5t-22.5 52.5t22.5 52.5t52.5 22.5t52.5 -22.5t22.5 -52.5t-22.5 -52.5t-52.5 -22.5zM470 780q-30 0 -52.5 22.5t-22.5 52.5t22.5 52.5t52.5 22.5
t52.5 -22.5t22.5 -52.5t-22.5 -52.5t-52.5 -22.5z" />
    <glyph glyph-name="uni04D3" unicode="&#x4d3;" horiz-adv-x="540" 
d="M190 -10q-34 0 -61.5 10.5t-47 29.5t-30.5 44.5t-11 55.5q0 60 38.5 102.5t106.5 54.5l155 28q-4 26 -25.5 45.5t-59.5 19.5q-26 0 -46.5 -8.5t-34.5 -19.5q-17 -12 -29 -27l-80 80q21 26 51 47q26 18 63 33t86 15q47 0 85.5 -15t66.5 -41.5t43 -62t15 -76.5v-305h-135
v60h-5q-16 -20 -37 -35q-18 -14 -45.5 -24.5t-62.5 -10.5zM235 100q45 0 75 30.5t30 79.5v10l-110 -20q-26 -5 -40.5 -18t-14.5 -32q0 -23 15 -36.5t45 -13.5zM170 555q-30 0 -52.5 22.5t-22.5 52.5t22.5 52.5t52.5 22.5t52.5 -22.5t22.5 -52.5t-22.5 -52.5t-52.5 -22.5z
M390 555q-30 0 -52.5 22.5t-22.5 52.5t22.5 52.5t52.5 22.5t52.5 -22.5t22.5 -52.5t-22.5 -52.5t-52.5 -22.5z" />
    <glyph glyph-name="uni04D6" unicode="&#x4d6;" horiz-adv-x="665" 
d="M90 700h520v-140h-370v-135h290v-135h-290v-150h380v-140h-530v700zM355 780q-36 0 -65.5 11.5t-50.5 32t-32.5 49t-11.5 62.5h100q0 -26 17 -43t43 -17t43 17t17 43h100q0 -34 -11.5 -62.5t-32.5 -49t-50.5 -32t-65.5 -11.5z" />
    <glyph glyph-name="uni04D7" unicode="&#x4d7;" horiz-adv-x="570" 
d="M295 -10q-54 0 -101.5 20t-83 55t-55.5 81t-20 99q0 52 20 98.5t55 81.5t81 55t99 20q51 0 95.5 -19.5t77.5 -52.5t52.5 -77.5t19.5 -95.5q0 -14 -1 -24.5t-2 -18.5q-1 -10 -2 -17h-355q11 -34 42.5 -59.5t87.5 -25.5q32 0 56 8t41 19q19 12 33 28l70 -95
q-22 -22 -54 -40q-27 -15 -66 -27.5t-90 -12.5zM395 295q-11 34 -39.5 59.5t-70.5 25.5t-70.5 -25.5t-39.5 -59.5h220zM285 555q-36 0 -65.5 11.5t-50.5 31.5t-32.5 47.5t-11.5 59.5h100q0 -26 17 -43t43 -17t43 17t17 43h100q0 -32 -11.5 -59.5t-32.5 -47.5t-50.5 -31.5
t-65.5 -11.5z" />
    <glyph glyph-name="uni04D8" unicode="&#x4d8;" horiz-adv-x="795" 
d="M395 -15q-75 0 -140 27.5t-112.5 76t-75 115.5t-27.5 146v22t1 19q1 10 2 19h547q-8 34 -25.5 64t-43.5 52.5t-60.5 35.5t-75.5 13q-48 0 -83.5 -12.5t-60.5 -27.5q-29 -18 -51 -40l-90 105q32 31 75 57q37 22 89.5 40t120.5 18q79 0 146 -27.5t115.5 -76.5t76 -115.5
t27.5 -145.5t-27.5 -146t-75 -115.5t-112.5 -76t-140 -27.5zM395 125q37 0 69.5 13t57.5 34.5t41 49.5t22 58h-380q6 -30 22 -58t41 -49.5t57 -34.5t70 -13z" />
    <glyph glyph-name="uni04D9" unicode="&#x4d9;" horiz-adv-x="565" 
d="M275 -10q-51 0 -95.5 19.5t-77.5 52.5t-52.5 77.5t-19.5 95.5q0 13 0.5 24t1.5 19q1 10 3 17h355q-11 34 -42.5 59.5t-87.5 25.5q-32 0 -56 -8.5t-41 -19.5q-19 -12 -33 -27l-70 95q22 22 54 40q27 15 66 27.5t90 12.5q54 0 101.5 -20t83 -55t55.5 -81.5t20 -98.5
q0 -53 -20 -99t-55 -81t-81.5 -55t-98.5 -20zM280 110q42 0 70.5 25.5t39.5 59.5h-220q11 -34 39.5 -59.5t70.5 -25.5z" />
    <glyph glyph-name="uni04DA" unicode="&#x4da;" horiz-adv-x="795" 
d="M395 -15q-75 0 -140 27.5t-112.5 76t-75 115.5t-27.5 146v22t1 19q1 10 2 19h547q-8 34 -25.5 64t-43.5 52.5t-60.5 35.5t-75.5 13q-48 0 -83.5 -12.5t-60.5 -27.5q-29 -18 -51 -40l-90 105q32 31 75 57q37 22 89.5 40t120.5 18q79 0 146 -27.5t115.5 -76.5t76 -115.5
t27.5 -145.5t-27.5 -146t-75 -115.5t-112.5 -76t-140 -27.5zM395 125q37 0 69.5 13t57.5 34.5t41 49.5t22 58h-380q6 -30 22 -58t41 -49.5t57 -34.5t70 -13zM295 780q-30 0 -52.5 22.5t-22.5 52.5t22.5 52.5t52.5 22.5t52.5 -22.5t22.5 -52.5t-22.5 -52.5t-52.5 -22.5z
M515 780q-30 0 -52.5 22.5t-22.5 52.5t22.5 52.5t52.5 22.5t52.5 -22.5t22.5 -52.5t-22.5 -52.5t-52.5 -22.5z" />
    <glyph glyph-name="uni04DB" unicode="&#x4db;" horiz-adv-x="565" 
d="M275 -10q-51 0 -95.5 19.5t-77.5 52.5t-52.5 77.5t-19.5 95.5q0 13 0.5 24t1.5 19q1 10 3 17h355q-11 34 -42.5 59.5t-87.5 25.5q-32 0 -56 -8.5t-41 -19.5q-19 -12 -33 -27l-70 95q22 22 54 40q27 15 66 27.5t90 12.5q54 0 101.5 -20t83 -55t55.5 -81.5t20 -98.5
q0 -53 -20 -99t-55 -81t-81.5 -55t-98.5 -20zM280 110q42 0 70.5 25.5t39.5 59.5h-220q11 -34 39.5 -59.5t70.5 -25.5zM170 555q-30 0 -52.5 22.5t-22.5 52.5t22.5 52.5t52.5 22.5t52.5 -22.5t22.5 -52.5t-22.5 -52.5t-52.5 -22.5zM390 555q-30 0 -52.5 22.5t-22.5 52.5
t22.5 52.5t52.5 22.5t52.5 -22.5t22.5 -52.5t-22.5 -52.5t-52.5 -22.5z" />
    <glyph glyph-name="uni04DC" unicode="&#x4dc;" horiz-adv-x="1020" 
d="M270 410l-260 290h180l245 -275v275h150v-275l245 275h180l-260 -290l280 -410h-175l-205 300l-65 -70v-230h-150v230l-65 70l-205 -300h-175zM400 780q-30 0 -52.5 22.5t-22.5 52.5t22.5 52.5t52.5 22.5t52.5 -22.5t22.5 -52.5t-22.5 -52.5t-52.5 -22.5zM620 780
q-30 0 -52.5 22.5t-22.5 52.5t22.5 52.5t52.5 22.5t52.5 -22.5t22.5 -52.5t-22.5 -52.5t-52.5 -22.5z" />
    <glyph glyph-name="uni04DD" unicode="&#x4dd;" horiz-adv-x="785" 
d="M185 285l-180 205h160l160 -185v185h135v-185l160 185h160l-180 -205l190 -285h-155l-125 190l-50 -55v-135h-135v135l-50 55l-125 -190h-155zM285 555q-30 0 -52.5 22.5t-22.5 52.5t22.5 52.5t52.5 22.5t52.5 -22.5t22.5 -52.5t-22.5 -52.5t-52.5 -22.5zM505 555
q-30 0 -52.5 22.5t-22.5 52.5t22.5 52.5t52.5 22.5t52.5 -22.5t22.5 -52.5t-22.5 -52.5t-52.5 -22.5z" />
    <glyph glyph-name="uni04DE" unicode="&#x4de;" horiz-adv-x="615" 
d="M290 -15q-70 0 -121 17.5t-86 39.5q-40 26 -68 58l100 100q18 -22 43 -40q21 -15 51.5 -27.5t70.5 -12.5q71 0 103 25.5t32 59.5t-30.5 59.5t-94.5 25.5h-95v130h85q57 0 83.5 23t26.5 57t-26.5 57t-83.5 23q-32 0 -58 -11t-44 -24q-21 -16 -38 -35l-100 100q26 29 63 52
q32 20 78 36.5t109 16.5q60 0 107.5 -16.5t80 -43.5t50 -62.5t17.5 -72.5q0 -45 -18 -74t-40 -46q-26 -20 -57 -30q39 -12 70 -35q26 -20 48 -53.5t22 -86.5q0 -41 -18.5 -79t-54 -67t-88 -46.5t-119.5 -17.5zM190 780q-30 0 -52.5 22.5t-22.5 52.5t22.5 52.5t52.5 22.5
t52.5 -22.5t22.5 -52.5t-22.5 -52.5t-52.5 -22.5zM410 780q-30 0 -52.5 22.5t-22.5 52.5t22.5 52.5t52.5 22.5t52.5 -22.5t22.5 -52.5t-22.5 -52.5t-52.5 -22.5z" />
    <glyph glyph-name="uni04DF" unicode="&#x4df;" horiz-adv-x="465" 
d="M225 -10q-53 0 -93 14t-67 31q-32 19 -55 45l75 80q17 -16 37 -28q17 -11 40.5 -19t52.5 -8q38 0 54 13t16 32t-16 32t-54 13h-60v110h60q30 0 45 12.5t15 27.5t-15 27.5t-45 12.5q-25 0 -45.5 -6t-36.5 -14q-18 -9 -33 -20l-75 80q21 20 51 37q26 14 63 26t86 12
q47 0 83.5 -12t61 -31.5t37.5 -45t13 -51.5q0 -32 -15 -53t-33 -34q-21 -15 -47 -23q29 -7 52 -22q20 -13 36.5 -35.5t16.5 -57.5q0 -28 -13 -54t-39 -46.5t-64 -32.5t-89 -12zM125 555q-30 0 -52.5 22.5t-22.5 52.5t22.5 52.5t52.5 22.5t52.5 -22.5t22.5 -52.5t-22.5 -52.5
t-52.5 -22.5zM345 555q-30 0 -52.5 22.5t-22.5 52.5t22.5 52.5t52.5 22.5t52.5 -22.5t22.5 -52.5t-22.5 -52.5t-52.5 -22.5z" />
    <glyph glyph-name="uni04E0" unicode="&#x4e0;" horiz-adv-x="610" 
d="M290 -15q-70 0 -121 17.5t-86 39.5q-40 26 -68 58l100 100q18 -22 43 -40q21 -15 51.5 -27.5t70.5 -12.5q71 0 103 27t32 68t-32 68t-103 27h-115v95l190 155h-300v140h490v-135l-170 -140q43 -6 79 -23t61.5 -45t40 -65t14.5 -82q0 -47 -18.5 -88t-54 -71.5t-88 -48
t-119.5 -17.5z" />
    <glyph glyph-name="uni04E1" unicode="&#x4e1;" horiz-adv-x="510" 
d="M225 -210q-57 0 -98 14t-68 31q-32 19 -54 45l85 90q16 -16 36 -28q17 -11 42 -19t57 -8q53 0 81.5 26.5t28.5 68.5t-28.5 68.5t-81.5 26.5h-105v85l165 170h-245v130h405v-119l-155 -156q83 -15 134 -68.5t51 -136.5q0 -47 -17.5 -87t-49.5 -69.5t-78.5 -46.5
t-104.5 -17z" />
    <glyph glyph-name="uni04E2" unicode="&#x4e2;" horiz-adv-x="805" 
d="M90 700h150v-450l340 450h135v-700h-150v450l-340 -450h-135v700zM240 910h320v-100h-320v100z" />
    <glyph glyph-name="uni04E3" unicode="&#x4e3;" 
d="M65 490h135v-280l210 280h120v-490h-135v280l-210 -280h-120v490zM140 690h320v-100h-320v100z" />
    <glyph glyph-name="uni04E4" unicode="&#x4e4;" horiz-adv-x="805" 
d="M90 700h150v-450l340 450h135v-700h-150v450l-340 -450h-135v700zM290 780q-30 0 -52.5 22.5t-22.5 52.5t22.5 52.5t52.5 22.5t52.5 -22.5t22.5 -52.5t-22.5 -52.5t-52.5 -22.5zM510 780q-30 0 -52.5 22.5t-22.5 52.5t22.5 52.5t52.5 22.5t52.5 -22.5t22.5 -52.5
t-22.5 -52.5t-52.5 -22.5z" />
    <glyph glyph-name="uni04E5" unicode="&#x4e5;" 
d="M65 490h135v-280l210 280h120v-490h-135v280l-210 -280h-120v490zM190 555q-30 0 -52.5 22.5t-22.5 52.5t22.5 52.5t52.5 22.5t52.5 -22.5t22.5 -52.5t-22.5 -52.5t-52.5 -22.5zM410 555q-30 0 -52.5 22.5t-22.5 52.5t22.5 52.5t52.5 22.5t52.5 -22.5t22.5 -52.5
t-22.5 -52.5t-52.5 -22.5z" />
    <glyph glyph-name="uni04E6" unicode="&#x4e6;" horiz-adv-x="850" 
d="M425 -15q-81 0 -150.5 29t-120.5 78.5t-80 116t-29 141.5t29 141.5t80 116t120.5 78.5t150.5 29t150.5 -29t120.5 -78.5t80 -116t29 -141.5t-29 -141.5t-80 -116t-120.5 -78.5t-150.5 -29zM425 125q47 0 88 17.5t71.5 48t48 71.5t17.5 88t-17.5 88t-48 71.5t-71.5 48
t-88 17.5t-88 -17.5t-71.5 -48t-48 -71.5t-17.5 -88t17.5 -88t48 -71.5t71.5 -48t88 -17.5zM315 780q-30 0 -52.5 22.5t-22.5 52.5t22.5 52.5t52.5 22.5t52.5 -22.5t22.5 -52.5t-22.5 -52.5t-52.5 -22.5zM535 780q-30 0 -52.5 22.5t-22.5 52.5t22.5 52.5t52.5 22.5
t52.5 -22.5t22.5 -52.5t-22.5 -52.5t-52.5 -22.5z" />
    <glyph glyph-name="uni04E7" unicode="&#x4e7;" horiz-adv-x="590" 
d="M295 -10q-54 0 -101.5 20t-83 55t-55.5 81t-20 99q0 52 20 98.5t55.5 81.5t83 55t101.5 20t101.5 -20t83 -55t55.5 -81.5t20 -98.5q0 -53 -20 -99t-55.5 -81t-83 -55t-101.5 -20zM295 115q26 0 49 10t40 27t26.5 41t9.5 52t-9.5 52t-26.5 41t-40 27t-49 10t-49 -10
t-40 -27t-26.5 -41t-9.5 -52t9.5 -52t26.5 -41t40 -27t49 -10zM185 555q-30 0 -52.5 22.5t-22.5 52.5t22.5 52.5t52.5 22.5t52.5 -22.5t22.5 -52.5t-22.5 -52.5t-52.5 -22.5zM405 555q-30 0 -52.5 22.5t-22.5 52.5t22.5 52.5t52.5 22.5t52.5 -22.5t22.5 -52.5t-22.5 -52.5
t-52.5 -22.5z" />
    </font>
</defs>
</svg>
